<?xml version="1.0" standalone="no"?>
<!DOCTYPE svg PUBLIC "-//W3C//DTD SVG 1.1//EN" "http://www.w3.org/Graphics/SVG/1.1/DTD/svg11.dtd">
<svg xmlns="http://www.w3.org/2000/svg">
<defs >
<font id="Merriweather" horiz-adv-x="1224" ><font-face
    font-family="Merriweather"
    units-per-em="2048"
    panose-1="2 0 5 3 5 0 0 9 0 4"
    ascent="2014"
    descent="-560"
    alphabetic="0" />
<glyph unicode=" " glyph-name="space" horiz-adv-x="485" />
<glyph unicode="!" glyph-name="exclam" horiz-adv-x="716" d="M367 1778H702L444 528H241L367 1778ZM127 77Q116 106 116 147T133 225T178 288Q234 341 307 341Q378 341 418 292Q455 247 455 188T437 92T390 29Q333 -20 253 -20Q164 -20 127 77Z" />
<glyph unicode="&quot;" glyph-name="quotedbl" horiz-adv-x="1110" d="M276 1687H563L395 966H195L276 1687ZM795 1687H1082L914 966H714L795 1687Z" />
<glyph unicode="#" glyph-name="numbersign" horiz-adv-x="1405" d="M295 365H111L134 545H329L374 850H181L197 1025H399L452 1357H677L626 1025H877L933 1357H1158L1104 1025H1306L1290 850H1079L1033 545H1231L1208 365H999L942 0H722L773 365H521L459 0H237L295
365ZM807 545L852 850H601L555 545H807Z" />
<glyph unicode="$" glyph-name="dollar" horiz-adv-x="1205" d="M79 393H283L292 174Q381 106 501 106Q705 106 748 235Q760 273 760 318T745 402T696 478Q642 540 535 608T368 725T262 831Q164 954 164 1099Q164 1297 308 1418Q445 1533 674 1547L703 1729H884L854
1545Q1038 1531 1138 1475L1084 1173H893L865 1371Q793 1423 691 1423Q535 1423 494 1312Q481 1279 481 1233T498 1141T552 1054Q614 981 769 887Q916 796 992 706Q1088 591 1088 445Q1088 153 809 32Q712 -10 577 -20L543 -230H363L396 -19Q201 -5 66 49Q31 63
17 75L79 393ZM204 270L201 276L204 270Z" />
<glyph unicode="%" glyph-name="percent" horiz-adv-x="1911" d="M1314 1530H1533L586 0H367L1314 1530ZM730 814T649 775T481 735T337 760T240 828Q160 918 160 1055Q160 1218 282 1352Q409 1490 593 1490Q745 1490 831 1402Q910 1321 910 1185Q910 1013 788
878Q730 814 649 775ZM391 1057Q391 848 497 848Q576 848 626 966Q670 1069 670 1177Q670 1378 565 1378Q485 1378 434 1264Q391 1170 391 1057ZM1017 370Q1017 430 1031 483T1073 584T1139 674T1226 746Q1329 812 1429 812T1588 789T1688 724Q1767 643 1767 507Q1767
335 1645 200Q1515 57 1325 57Q1181 57 1097 150Q1017 240 1017 370ZM1527 499Q1527 700 1422 700Q1342 700 1291 586Q1248 492 1248 379Q1248 170 1354 170Q1433 170 1484 288Q1527 391 1527 499Z" />
<glyph unicode="&amp;" glyph-name="ampersand" horiz-adv-x="1812" d="M1046 22Q859 -37 701 -37T432 -11T240 64Q71 166 71 340Q71 580 312 712Q383 750 461 783Q382 976 382 1098T423 1305T536 1450Q685 1569 925 1569Q1139 1569 1253 1480Q1357 1398 1357
1265Q1357 1088 1194 968Q1106 903 1006 857L844 784Q937 617 987 549T1073 438L1152 349Q1160 339 1174 326L1206 296Q1275 390 1275 512Q1275 557 1272 595H1249Q1140 595 1094 557V783Q1143 832 1249 832Q1285 832 1328 826Q1410 816 1455 816T1527 822T1574
846Q1606 876 1620 968H1733Q1756 897 1756 828T1737 704T1679 614T1579 578H1547V556Q1547 341 1351 182Q1457 129 1573 144L1572 19Q1497 -13 1419 -16T1284 -20Q1147 -20 1046 22ZM919 1446Q722 1446 722 1177Q722 1052 778 915Q902 976 962 1046Q1036 1131
1036 1249Q1036 1380 976 1428Q953 1446 919 1446ZM544 621Q417 518 417 382Q417 252 502 178Q585 104 703 104T905 122Q760 257 624 486L544 621Z" />
<glyph unicode="&apos;" glyph-name="quotesingle" horiz-adv-x="591" d="M276 1687H563L395 966H195L276 1687Z" />
<glyph unicode="(" glyph-name="parenleft" horiz-adv-x="884" d="M199 267Q176 377 176 492T193 740T258 1005T370 1249T504 1451T640 1608Q762 1734 832 1771L959 1682Q854 1612 716 1406Q607 1241 534 1020Q456 784 456 512Q456 141 614 -134Q668 -228 713
-265L575 -349H558Q458 -286 340 -96Q242 61 199 267Z" />
<glyph unicode=")" glyph-name="parenright" horiz-adv-x="894" d="M681 1161Q704 1051 704 936T687 688T622 423T510 179T376 -23T240 -180Q118 -306 48 -343L-79 -254Q26 -184 164 22Q273 187 346 408Q424 644 424 916Q424 1287 266 1562Q212 1656 167 1693L305
1777H322Q422 1714 540 1524Q638 1367 681 1161Z" />
<glyph unicode="*" glyph-name="asterisk" horiz-adv-x="1366" d="M221 993L564 1131L624 1151L572 1169L252 1309L393 1513L655 1295L697 1256L691 1318L684 1673L936 1672L853 1314L838 1261L884 1297L1194 1515L1290 1307L946 1169L886 1149L939 1130L1259
991L1118 787L855 1004L813 1046L819 982L826 627L574 628L656 986L672 1040L626 1002L317 785L221 993Z" />
<glyph unicode="+" glyph-name="plus" horiz-adv-x="1326" d="M558 516L584 680L443 673H248L266 871H482L620 860L633 1025L660 1255H878L852 1025L823 861L938 871H1163L1145 673H900L788 680Q786 638 783 598T778 516L750 275H531L558 516Z" />
<glyph unicode="," glyph-name="comma" horiz-adv-x="556" d="M95 142L229 295Q341 269 396 177Q442 101 442 7T414 -164T334 -308Q231 -440 48 -521L-15 -432L-12 -411Q70 -375 130 -278Q190 -183 190 -88Q190 -21 168 15Q131 80 88 78L95 142Z" />
<glyph unicode="-" glyph-name="hyphen" horiz-adv-x="1286" d="M266 871H1123L1105 673H248L266 871Z" />
<glyph unicode="." glyph-name="period" horiz-adv-x="556" d="M72 77Q61 106 61 147T78 225T122 288Q179 341 252 341Q323 341 364 292Q400 247 400 188T382 92T335 29Q278 -20 198 -20Q109 -20 72 77Z" />
<glyph unicode="/" glyph-name="slash" horiz-adv-x="854" d="M-122 -362L739 1597H973L110 -362H-122Z" />
<glyph unicode="0" glyph-name="zero" horiz-adv-x="1278" d="M135 186T108 270T81 478T128 731T261 957T464 1107T719 1162T948 1128T1098 1032Q1207 915 1207 697Q1207 403 1036 200Q954 101 836 43T578 -16T345 21T194 122ZM873 677Q873 1053 697 1053Q498
1053 437 720Q415 599 415 495T424 324T455 205Q501 94 591 94Q691 94 760 185Q873 336 873 677Z" />
<glyph unicode="1" glyph-name="one" horiz-adv-x="930" d="M71 106L272 136L376 887Q376 887 259 860Q200 846 134 835L115 960Q288 1000 483 1104Q541 1135 581 1162L744 1125L604 136L814 106L804 0H61L71 106Z" />
<glyph unicode="2" glyph-name="two" horiz-adv-x="1249" d="M42 136Q434 374 614 581Q714 696 714 776Q714 898 630 940Q599 956 550 956T450 942T352 904Q260 855 188 770L113 900Q243 1074 454 1138Q535 1162 645 1162T839 1130T973 1048Q1064 958 1064 826Q1064
583 702 332Q568 239 387 151L899 194L1051 395L1199 349L1078 0H75L42 136Z" />
<glyph unicode="3" glyph-name="three" horiz-adv-x="1104" d="M21 -168Q81 -184 184 -184T373 -156T512 -80Q615 10 615 155Q615 296 468 328Q437 335 404 335T340 332L231 302L252 475Q394 502 509 599Q633 703 633 815Q633 863 608 896Q560 959 488 959Q311
959 161 833L101 958Q213 1083 424 1141Q501 1162 580 1162T728 1143T848 1086Q962 1004 962 871Q962 739 864 633Q769 532 614 482Q863 471 928 289Q947 234 947 170Q947 -80 742 -218Q544 -350 204 -350Q97 -350 -1 -327L21 -168Z" />
<glyph unicode="4" glyph-name="four" horiz-adv-x="1264" d="M-24 84Q67 221 149 358L312 636L658 1256H955L1037 1167L380 219L337 153L693 182L737 491L1040 549L999 185L1182 200L1155 0H965L918 -375H619L668 0H42L-24 84Z" />
<glyph unicode="5" glyph-name="five" horiz-adv-x="1116" d="M61 -185Q112 -201 204 -201T386 -164T530 -70Q636 40 636 194Q636 354 490 402Q437 420 380 420T293 415T237 403T192 386L154 367L93 414L274 1146H811L833 1162H1051L996 934H532L428 568Q493 596
605 596T781 572T890 502Q988 406 988 252T930 -16T768 -204Q562 -354 210 -354Q160 -354 103 -343T36 -329L61 -185Z" />
<glyph unicode="6" glyph-name="six" horiz-adv-x="1208" d="M523 -20Q431 -20 350 11T210 109Q87 249 87 529Q87 888 341 1180Q591 1468 974 1571L1028 1437Q838 1379 681 1216Q526 1053 464 855Q533 945 674 982Q721 995 790 995T924 966T1030 886Q1112 783
1112 611Q1112 354 948 170Q780 -20 523 -20ZM793 549Q793 812 655 812Q550 812 465 726Q443 703 431 683Q404 560 404 468T411 315T438 209Q480 116 576 116Q721 116 772 352Q793 446 793 549Z" />
<glyph unicode="7" glyph-name="seven" horiz-adv-x="1096" d="M833 981L419 959L316 728L78 732L165 1146H1087L1119 1103L512 -340L174 -244L833 981Z" />
<glyph unicode="8" glyph-name="eight" horiz-adv-x="1256" d="M423 812Q237 969 237 1179Q237 1346 376 1448Q517 1550 744 1550Q934 1550 1051 1468Q1178 1378 1178 1218Q1178 1033 992 892Q938 850 878 814Q1063 686 1123 520Q1144 461 1144 380T1096 221T970
90Q810 -20 587 -20Q394 -20 261 62Q99 161 99 364Q99 557 300 725Q358 774 423 812ZM729 929Q817 984 853 1032Q921 1124 921 1233Q921 1343 860 1393Q813 1431 753 1431T657 1421T594 1386Q538 1334 538 1234T587 1065T729 929ZM568 704Q385 582 385 368Q385
271 434 196Q492 106 592 106Q693 106 762 162Q838 226 838 340Q838 481 672 620L568 704Z" />
<glyph unicode="9" glyph-name="nine" horiz-adv-x="1247" d="M685 1162Q1128 1162 1128 634Q1128 387 1005 152Q888 -70 686 -227Q482 -385 245 -431L185 -294Q600 -166 766 268L722 222Q638 138 486 138Q288 138 187 262Q103 366 103 514T143 776T260 976Q423
1162 685 1162ZM422 594Q422 321 559 321Q693 321 785 459Q811 565 811 662T804 819T778 926Q736 1027 637 1027Q494 1027 442 786Q422 697 422 594Z" />
<glyph unicode=":" glyph-name="colon" horiz-adv-x="556" d="M178 886Q167 915 167 956T184 1034T228 1097Q285 1150 358 1150Q429 1150 470 1101Q506 1056 506 997T488 901T441 838Q384 789 304 789Q215 789 178 886ZM72 77Q61 106 61 147T78 225T122 288Q179
341 252 341Q323 341 364 292Q400 247 400 188T382 92T335 29Q278 -20 198 -20Q109 -20 72 77Z" />
<glyph unicode=";" glyph-name="semicolon" horiz-adv-x="556" d="M95 142L229 295Q341 269 396 177Q442 101 442 7T414 -164T334 -308Q231 -440 48 -521L-15 -432L-12 -411Q70 -375 130 -278Q190 -183 190 -88Q190 -21 168 15Q131 80 88 78L95 142ZM178 886Q167
915 167 956T184 1034T228 1097Q285 1150 358 1150Q429 1150 470 1101Q506 1056 506 997T488 901T441 838Q384 789 304 789Q215 789 178 886Z" />
<glyph unicode="&lt;" glyph-name="less" horiz-adv-x="1368" d="M211 814L1220 1324L1187 1063L505 747L1111 417L1085 176L195 686L211 814Z" />
<glyph unicode="=" glyph-name="equal" horiz-adv-x="1063" d="M172 1035H987L964 838H149L172 1035ZM99 506H914L891 309H76L99 506Z" />
<glyph unicode="&gt;" glyph-name="greater" horiz-adv-x="1368" d="M1259 689L250 179L283 440L965 756L359 1086L385 1327L1275 817L1259 689Z" />
<glyph unicode="?" glyph-name="question" horiz-adv-x="951" d="M466 703Q462 668 462 633T483 529L311 480L297 481Q226 556 226 707Q226 850 399 962L506 1028Q647 1101 726 1186Q757 1249 757 1311T736 1425T669 1515Q573 1598 414 1598Q314 1598 198 1540L259
1760Q303 1800 468 1826Q513 1833 578 1833T716 1815T842 1766T930 1692T986 1602Q1024 1514 1024 1413T1001 1244T941 1124T855 1033T754 962L654 902Q475 799 466 703ZM304 77Q293 106 293 147T310 225T354 288Q411 341 484 341Q555 341 596 292Q632 247 632
188T614 92T567 29Q510 -20 430 -20Q341 -20 304 77Z" />
<glyph unicode="@" glyph-name="at" horiz-adv-x="1969" d="M1386 239Q1386 173 1413 173Q1493 173 1566 274Q1670 418 1704 670Q1715 747 1715 836T1690 1009T1622 1158T1520 1269T1394 1346Q1261 1405 1121 1405T870 1364T667 1252T502 1085T380 878Q278 652
278 408Q278 69 480 -112Q660 -272 941 -272Q1078 -272 1222 -234Q1263 -223 1287 -211L1330 -319Q1222 -402 1032 -428Q971 -437 881 -437T684 -417T482 -356T309 -252T174 -103Q55 77 55 337Q55 692 231 988Q393 1259 660 1418Q921 1574 1196 1574Q1510 1574
1708 1396Q1912 1214 1912 913Q1912 500 1720 238Q1603 78 1448 19Q1372 -10 1294 -10Q1169 -10 1169 195Q1169 296 1207 457Q1081 161 924 48Q868 7 810 7T692 33T587 112Q485 231 485 441Q485 700 641 899Q747 1034 908 1089Q991 1117 1050 1117T1136 1113T1192
1100Q1257 1080 1295 1053L1500 1103Q1433 847 1391 430Q1385 372 1385 312L1386 239ZM778 724T758 632T738 477T744 376T765 304Q798 226 854 226Q907 226 996 353Q1128 541 1204 766Q1226 833 1232 882Q1207 930 1116 956Q1090 964 1069 964Q913 964 820 798Q778
724 758 632Z" />
<glyph unicode="A" glyph-name="A" horiz-adv-x="1375" d="M667 1530H1014L1261 138L1422 106L1416 0H727L732 106L889 135L849 416H339L214 136L402 106L394 0H-164L-156 106L-18 135L667 1530ZM828 567L750 1117L741 1316L406 567H828Z" />
<glyph unicode="B" glyph-name="B" horiz-adv-x="1396" d="M595 -20L275 0H-22L-13 106L127 136L294 1394L149 1420L162 1530H498L857 1546Q1124 1546 1240 1444Q1335 1361 1335 1199Q1335 895 959 803Q966 803 1008 803T1116 780T1230 714Q1327 628 1327 494T1280
260T1140 99Q963 -20 595 -20ZM559 856H683Q825 856 912 934Q1005 1018 1005 1174Q1005 1299 946 1359T778 1420Q692 1420 633 1406L559 856ZM638 105Q961 105 961 437Q961 591 888 656Q819 719 665 719Q611 719 590 718T559 716T540 714L461 128Q548 105 638 105Z"
/>
<glyph unicode="C" glyph-name="C" horiz-adv-x="1300" d="M451 686Q451 145 731 145Q824 145 871 168T940 212T972 256T993 305T1012 361L1028 419L1229 420L1186 136Q1108 71 1031 43Q873 -16 690 -16T390 37T199 180Q60 350 60 637Q60 1061 303 1308Q541 1549
949 1549Q1142 1549 1252 1516Q1280 1507 1308 1501L1341 1492L1280 1092H1027L987 1402Q940 1420 877 1420T749 1387T635 1296T549 1164Q451 957 451 686Z" />
<glyph unicode="D" glyph-name="D" horiz-adv-x="1505" d="M-32 106L126 136L294 1394L150 1420L161 1530H478Q563 1531 654 1538T835 1546Q835 1546 842 1546Q1177 1546 1342 1366Q1488 1207 1488 921Q1488 251 1000 53Q830 -16 592 -16Q566 -16 533 -12T477
-7T428 -4Q366 0 324 0H-44L-32 106ZM477 136Q543 111 624 111T778 145T906 236T1001 371T1064 534Q1111 699 1111 863T1093 1129T1036 1296Q963 1420 802 1420Q688 1420 643 1394L477 136Z" />
<glyph unicode="E" glyph-name="E" horiz-adv-x="1329" d="M-32 106L128 136L292 1394L147 1420L158 1530H1276L1240 1160H1018L984 1384L645 1410L573 881L1017 905L994 687L553 712L475 136L938 171L1055 468L1268 454L1198 0H-46L-32 106Z" />
<glyph unicode="F" glyph-name="F" horiz-adv-x="1215" d="M-10 106L128 136L292 1394L147 1420L161 1530H1297L1253 1148H1032L1013 1390L647 1408L572 859L1055 897L1028 662L552 701L480 136L807 106L799 0H-21L-10 106Z" />
<glyph unicode="G" glyph-name="G" horiz-adv-x="1450" d="M903 1420Q433 1420 433 658Q433 294 582 176Q633 135 704 135Q850 135 929 163L978 590L776 607L795 753H1351L1265 84L1226 79Q1136 68 1083 54L983 28Q807 -16 646 -16T376 36T198 178Q60 356 60 656Q60
1057 266 1294Q487 1549 900 1549Q1111 1549 1263 1508Q1300 1498 1333 1490L1395 1479L1327 1123H1080L1072 1380Q998 1420 903 1420ZM1193 1271L1163 1310Q1171 1301 1178 1291L1193 1271Z" />
<glyph unicode="H" glyph-name="H" horiz-adv-x="1653" d="M-10 106L128 136L294 1394L149 1420L163 1530H838L826 1420L646 1394L575 854H1127L1198 1394L1021 1420L1033 1530H1716L1704 1420L1550 1394L1385 136L1542 106L1530 0H827L841 106L1032 136L1107
704H555L480 136L654 106L646 0H-21L-10 106Z" />
<glyph unicode="I" glyph-name="I" horiz-adv-x="783" d="M-5 106L145 136L310 1394L163 1420L175 1530H846L834 1420L662 1394L497 136L672 106L665 0H-18L-5 106Z" />
<glyph unicode="J" glyph-name="J" horiz-adv-x="748" d="M-205 -237Q71 -153 115 86Q209 592 297 1393L144 1420L159 1530H825L814 1420L646 1394L542 560Q487 143 460 65T372 -84T230 -208Q70 -313 -153 -345L-205 -237Z" />
<glyph unicode="K" glyph-name="K" horiz-adv-x="1477" d="M-18 106L128 136L293 1394L148 1420L162 1530H837L825 1420L645 1394L556 721L1180 1394L1035 1421L1046 1530H1547L1535 1420L1418 1394L951 924Q981 878 1013 812Q1013 812 1146 530Q1315 170 1377
136L1494 106L1482 0H1048Q1005 6 984 37T946 106L906 204Q886 253 864 314Q760 599 716 686L527 495L480 136L654 106L645 0H-31L-18 106Z" />
<glyph unicode="L" glyph-name="L" horiz-adv-x="1271" d="M-10 106L128 136L293 1394L147 1420L160 1530H839L827 1420L645 1394L479 129L828 149L1019 600L1200 577L1116 0H-22L-10 106Z" />
<glyph unicode="M" glyph-name="M" horiz-adv-x="2017" d="M-116 106L65 136L391 1394L197 1420L213 1530H904L1024 509L1079 680L1413 1530H2033L2020 1420L1834 1394L1794 136L1998 106L1990 0H1253L1262 108L1451 136L1508 996L1528 1394L1385 1044L946 -3L777
-18L641 1020L587 1395L500 1010L291 136L516 107L506 0H-128L-116 106Z" />
<glyph unicode="N" glyph-name="N" horiz-adv-x="1545" d="M-25 106L124 136L310 1394L140 1420L156 1530H713L1084 535L1162 305L1298 1394L1126 1420L1137 1530H1639L1628 1420L1505 1394L1293 0H935L544 1028L466 1282L341 136L531 106L520 0H-33L-25 106Z" />
<glyph unicode="O" glyph-name="O" horiz-adv-x="1500" d="M55 624Q55 752 76 865T142 1079T252 1266T409 1416Q600 1550 865 1550Q1167 1550 1326 1351Q1465 1176 1465 893Q1465 519 1277 267Q1063 -20 655 -20Q353 -20 198 168Q55 342 55 624ZM1084 881Q1084
1426 838 1426Q651 1426 539 1183Q436 959 436 649Q436 102 684 102Q880 102 986 330Q1084 539 1084 881Z" />
<glyph unicode="P" glyph-name="P" horiz-adv-x="1312" d="M1081 599T949 557T694 514T532 518L486 136L764 106L756 0H-22L-11 106L127 136L295 1394L147 1420L161 1530H477L774 1546Q1223 1546 1318 1314Q1352 1230 1352 1107T1308 871T1172 679ZM1002 1132Q1002
1420 739 1420Q697 1420 650 1411L548 654Q582 645 612 645T658 646Q816 648 910 784Q1002 918 1002 1132Z" />
<glyph unicode="Q" glyph-name="Q" horiz-adv-x="1501" d="M607 -19Q331 -6 186 182Q55 352 55 636Q55 1009 252 1266Q390 1444 612 1514Q726 1549 875 1549T1139 1495T1326 1350Q1465 1175 1465 892Q1465 557 1312 316Q1142 46 811 -8Q811 -16 811 -44T829 -104T886
-154Q946 -181 1090 -181Q1254 -181 1379 -142L1381 -328Q1233 -439 993 -439Q772 -439 668 -330Q594 -251 594 -129Q594 -78 607 -19ZM1084 880Q1084 1425 838 1425Q651 1425 539 1182Q436 958 436 648Q436 101 684 101Q880 101 986 329Q1084 538 1084 880Z" />
<glyph unicode="R" glyph-name="R" horiz-adv-x="1450" d="M839 1546Q1365 1546 1365 1164Q1365 921 1180 780Q1120 734 1044 705Q1088 654 1161 448Q1178 400 1199 351L1243 253Q1291 151 1344 123Q1375 107 1421 106L1411 -1L996 1Q963 1 906 188Q774 604 735
662Q699 661 664 661H542L476 136L660 106L654 0H-22L-13 106L128 136L293 1394L148 1420L161 1530H472Q532 1530 606 1536Q746 1546 839 1546ZM561 800Q574 799 595 798H638Q661 797 680 797H710Q854 797 933 898Q1008 992 1008 1155Q1008 1299 939 1359T757 1420Q732
1420 710 1418L672 1414Q656 1413 642 1410L561 800Z" />
<glyph unicode="S" glyph-name="S" horiz-adv-x="1157" d="M75 393H281L292 172Q379 106 475 106T620 122T698 166Q750 215 750 309Q750 402 690 474Q636 540 531 607T366 724T262 832Q166 959 166 1085T208 1294T327 1434Q481 1549 735 1549Q1007 1549 1134 1475L1080
1173H889L859 1371Q789 1423 690 1423Q534 1423 495 1317Q483 1284 483 1238T500 1146T552 1058Q611 986 766 889Q1078 691 1078 442Q1078 247 934 120Q774 -23 491 -23Q254 -23 77 44Q32 61 15 75L75 393Z" />
<glyph unicode="T" glyph-name="T" horiz-adv-x="1461" d="M245 106L495 136L662 1394L426 1368L259 945H71L170 1530H1546L1471 947L1290 945L1257 1368L1015 1394L847 136L1131 106L1121 0H232L245 106Z" />
<glyph unicode="U" glyph-name="U" horiz-adv-x="1447" d="M179 171T154 253T128 401Q128 530 135 593L235 1394L91 1420L104 1530H808L798 1421L601 1394L504 623Q487 475 487 413T501 293T546 192Q609 104 732 104Q986 104 1075 412Q1103 508 1119 626L1223
1394L1055 1421L1066 1530H1550L1535 1421L1406 1394L1309 627Q1264 280 1105 127Q952 -20 670 -20Q375 -20 241 110Q179 171 154 253Z" />
<glyph unicode="V" glyph-name="V" horiz-adv-x="1245" d="M115 1394L-24 1421L-10 1530H643L634 1420L472 1394L592 510L616 302L691 510L1101 1394L910 1420L920 1530H1495L1477 1420L1307 1394L660 -10H339L115 1394Z" />
<glyph unicode="W" glyph-name="W" horiz-adv-x="1954" d="M115 1393L-23 1421L-9 1530H603L594 1420L468 1392L594 302L673 510L978 1248L965 1393L805 1421L815 1530H1451L1442 1420L1303 1393L1396 510L1403 302L1864 1393L1637 1420L1647 1530H2241L2231 1421L2072
1394L1428 -10H1108L1018 926L639 -10H322L115 1393Z" />
<glyph unicode="X" glyph-name="X" horiz-adv-x="1389" d="M-64 106L50 136L529 749L223 1394L104 1420L115 1530H776L768 1421L624 1394L792 953L1088 1394L954 1420L960 1530H1482L1472 1420L1336 1394L866 809L1201 136L1327 106L1317 0H625L634 106L790 136L610
591L307 136L459 106L449 0H-76L-64 106Z" />
<glyph unicode="Y" glyph-name="Y" horiz-adv-x="1281" d="M173 106L403 136L461 605L130 1394L19 1420L31 1530H715L698 1420L517 1394L689 908L742 785L1096 1394L932 1420L942 1530H1475L1460 1420L1330 1394L815 605L754 136L999 106L989 0H161L173 106Z" />
<glyph unicode="Z" glyph-name="Z" horiz-adv-x="1226" d="M-73 89L804 1304L927 1402L503 1384L355 1114L180 1136L231 1530H1271L1301 1444L436 235L324 137L817 159L1001 492L1168 461L1080 0H-39L-73 89Z" />
<glyph unicode="[" glyph-name="bracketleft" horiz-adv-x="874" d="M322 1519Q354 1771 633 1771Q701 1771 893 1724L873 1601H598L375 -55L650 -57L635 -185L570 -204Q464 -232 390 -232T270 -225T188 -202Q110 -165 110 -89V-36Q110 -9 114 21L322 1519Z" />
<glyph unicode="\" glyph-name="backslash" horiz-adv-x="854" d="M26 1597H254L831 -362H602L26 1597Z" />
<glyph unicode="]" glyph-name="bracketright" horiz-adv-x="874" d="M573 37Q541 -215 262 -215Q194 -215 2 -168L22 -45H297L520 1611L245 1613L260 1741L325 1760Q431 1788 505 1788T625 1781T707 1758Q785 1721 785 1645V1592Q785 1565 781 1535L573 37Z" />
<glyph unicode="^" glyph-name="asciicircum" horiz-adv-x="1364" d="M658 1531H915L1192 510H937L758 1202L402 510H137L658 1531Z" />
<glyph unicode="_" glyph-name="underscore" horiz-adv-x="1335" d="M1287 -187L1267 -338H-111L-91 -187H1287Z" />
<glyph unicode="`" glyph-name="grave" horiz-adv-x="541" d="M386 1241Q275 1288 110 1440Q30 1513 0 1566L203 1743L491 1311L386 1241Z" />
<glyph unicode="a" glyph-name="a" horiz-adv-x="1215" d="M717 106Q591 -20 413 -20Q235 -20 142 104Q60 216 60 402Q60 713 234 928Q352 1076 538 1134Q633 1163 746 1163T984 1120L1136 1163L1007 227Q998 151 1046 151Q1080 151 1139 197L1167 124Q1114 42
994 -2Q946 -20 880 -20T766 12T717 106ZM680 209L790 1017Q757 1023 709 1023T614 997T532 925T473 819T434 690Q406 563 406 426T445 222T551 154T680 209Z" />
<glyph unicode="b" glyph-name="b" horiz-adv-x="1191" d="M860 96T734 38T471 -20T206 23L60 -20L247 1484L144 1527L165 1611L526 1650L580 1623L506 1059Q630 1163 787 1163Q1043 1163 1110 914Q1131 833 1131 703T1084 436T949 198ZM385 128Q421 119 491 119T621
171T718 310Q790 474 790 729Q790 906 710 967Q683 988 640 988Q560 988 485 899L385 128Z" />
<glyph unicode="c" glyph-name="c" horiz-adv-x="942" d="M575 169Q731 169 829 297L893 194Q806 58 609 1Q536 -20 448 -20T288 9T166 98Q59 224 59 468Q59 734 214 934Q323 1075 503 1134Q594 1163 665 1163T770 1161T839 1154Q915 1143 961 1125L868 803Q847
809 813 848L757 911Q673 1006 633 1006T550 966Q458 880 418 682Q400 594 400 535T401 428T413 326T446 236Q487 169 575 169Z" />
<glyph unicode="d" glyph-name="d" horiz-adv-x="1255" d="M1036 229Q1025 151 1075 151Q1102 151 1163 197L1191 124L1160 90Q1108 32 1041 6T898 -20Q748 -20 736 147Q656 36 519 -4Q467 -20 389 -20T245 13T138 104Q60 214 60 402Q60 717 224 928Q338 1075
526 1134Q621 1163 700 1163T839 1154L887 1482L731 1525L750 1608L1182 1650L1238 1623L1036 229ZM545 154Q635 154 707 257L817 1007Q772 1023 712 1023T606 997T524 925T466 819T428 690Q401 566 401 427Q401 154 545 154Z" />
<glyph unicode="e" glyph-name="e" horiz-adv-x="1048" d="M607 159Q785 159 905 315L969 212Q876 67 673 4Q595 -20 507 -20T356 -3T243 46T160 119T104 212Q61 310 61 430Q61 433 61 436Q61 749 248 956Q433 1163 710 1163Q950 1163 1017 1012Q1039 961 1039
893T1013 762T939 649T828 563T694 503Q556 457 420 455Q420 299 470 229T607 159ZM636 1025Q449 1025 420 575Q526 582 616 659Q718 747 718 886T636 1025Z" />
<glyph unicode="f" glyph-name="f" horiz-adv-x="709" d="M857 1466Q795 1514 740 1514T662 1503T626 1468Q609 1437 589 1305L569 1155H799L778 984H545L429 9Q380 -350 142 -470Q55 -513 -63 -513Q-157 -513 -253 -489L-195 -305Q-190 -307 -172 -315T-130 -332Q-73
-354 -32 -354T41 -309T87 -162L225 984H100L121 1087L257 1150L274 1254Q328 1549 562 1640Q641 1670 712 1670Q856 1670 919 1644L857 1466Z" />
<glyph unicode="g" glyph-name="g" horiz-adv-x="1218" d="M538 1134Q633 1163 747 1163T994 1117L1156 1163L989 -77Q950 -387 640 -482Q523 -518 370 -518Q260 -518 189 -499T102 -473L153 -258Q174 -279 232 -302Q348 -349 412 -349T516 -343T584 -315Q640
-273 655 -145L680 73Q563 -20 413 -20Q235 -20 142 104Q60 216 60 402Q60 713 234 928Q352 1076 538 1134ZM814 1012Q776 1023 719 1023T614 997T532 925T473 819T434 690Q406 563 406 426T445 222T554 154Q631 154 699 227L814 1012Z" />
<glyph unicode="h" glyph-name="h" horiz-adv-x="1296" d="M1113 151Q1142 151 1203 197L1231 124Q1169 39 1050 -2Q998 -21 931 -21T823 -7T762 32Q728 71 728 150Q728 191 739 253L790 532Q819 701 819 759T819 841T813 893T798 936Q781 965 745 965T675 944T608
887Q537 811 490 705L404 0H71L250 1482L123 1525L139 1608L548 1650L603 1623L516 915Q665 1163 900 1163Q1165 1163 1165 861Q1165 806 1144 677L1116 505Q1110 467 1103 426T1088 345Q1074 256 1074 204T1113 151Z" />
<glyph unicode="i" glyph-name="i" horiz-adv-x="669" d="M568 1370T530 1354T448 1338T375 1352Q315 1381 288 1444Q276 1472 276 1507T290 1580T330 1644Q384 1701 474 1701Q549 1701 599 1650Q644 1606 644 1554T631 1463T593 1398ZM603 124Q485 -20 307 -20Q200
-20 153 18T106 108Q106 118 111 153T128 275L221 980L57 1031L75 1112L521 1163L576 1139L448 227Q446 212 446 200Q446 151 483 151Q513 151 575 197L603 124Z" />
<glyph unicode="j" glyph-name="j" horiz-adv-x="652" d="M-212 -370Q-170 -382 -119 -382T-23 -345T49 -246Q90 -152 115 65L220 980L54 1031L75 1112L526 1163L578 1139L441 0Q408 -253 258 -394Q116 -528 -79 -528Q-211 -528 -250 -491L-212 -370ZM558 1370T520
1354T438 1338T365 1352Q305 1381 278 1444Q266 1472 266 1507T280 1580T320 1644Q374 1701 464 1701Q539 1701 589 1650Q634 1606 634 1554T621 1463T583 1398Z" />
<glyph unicode="k" glyph-name="k" horiz-adv-x="1158" d="M258 1482L130 1525L147 1608L556 1650L611 1623L396 0H63L258 1482ZM948 274Q996 182 1069 182Q1108 182 1171 228L1205 157Q1117 51 981 2Q925 -19 871 -19T785 -10T728 14Q686 43 664 101L478 610L483
611H478Q570 658 613 692Q702 761 778 863Q831 933 831 1028Q831 1101 888 1136Q932 1163 980 1163T1052 1153T1092 1124Q1126 1089 1126 1033Q1126 951 1069 872Q969 747 764 654L948 274Z" />
<glyph unicode="l" glyph-name="l" horiz-adv-x="635" d="M423 227Q412 151 461 151Q489 151 550 197L578 124Q517 40 408 -2Q359 -20 308 -20T219 -13T151 11Q85 46 83 115Q83 144 91 192L262 1482L130 1525L150 1608L556 1650L607 1623L423 227Z" />
<glyph unicode="m" glyph-name="m" horiz-adv-x="1954" d="M1771 151Q1800 151 1861 197L1889 124Q1827 39 1708 -2Q1656 -21 1589 -21T1481 -5T1420 36Q1386 75 1386 150Q1386 191 1397 253L1448 532Q1477 701 1477 759T1477 841T1471 893T1456 936Q1439 965
1404 965T1338 950T1274 908Q1211 853 1161 758Q1155 637 1137 505L1078 0H743L811 532Q830 684 830 745T830 837T823 895T806 940Q788 965 750 965T680 948T616 900Q551 836 502 742L400 0H77L209 962L101 1022L118 1111L490 1163L543 1139L527 927Q630 1094 780
1145Q832 1163 889 1163Q1132 1163 1161 916Q1299 1163 1558 1163Q1823 1163 1823 861Q1823 806 1802 677L1774 505Q1768 467 1761 426T1746 345Q1732 256 1732 204T1771 151Z" />
<glyph unicode="n" glyph-name="n" horiz-adv-x="1299" d="M1116 151Q1145 151 1206 197L1234 124Q1172 39 1054 -2Q1001 -21 934 -21T826 -5T765 36Q731 75 731 150Q731 191 742 253L792 532Q822 701 822 759T822 841T816 893T802 936Q784 965 749 965T681 946T616
892Q550 825 501 721L402 0H78L209 962L102 1022L118 1111L492 1163L544 1139L528 929Q676 1163 903 1163Q1168 1163 1168 861Q1168 806 1147 677L1119 505Q1113 467 1106 426T1092 345Q1077 256 1077 204T1116 151Z" />
<glyph unicode="o" glyph-name="o" horiz-adv-x="1197" d="M317 11Q61 109 61 468Q61 752 222 948Q332 1084 502 1136Q588 1163 690 1163T874 1132T1012 1042Q1131 916 1131 674Q1131 390 970 194Q858 59 688 6Q603 -20 501 -20T317 11ZM491 126Q515 107 555 107T629
133T688 204T731 309Q773 456 773 659Q773 953 702 1008Q680 1025 643 1025T571 999T509 929T464 825Q417 672 417 478Q417 182 491 126Z" />
<glyph unicode="p" glyph-name="p" horiz-adv-x="1230" d="M543 1055Q656 1163 821 1163Q1080 1163 1148 914Q1170 833 1170 703T1122 436T986 198Q796 -20 496 -20Q444 -20 395 -11L324 -520H6L206 982L89 1032L108 1111L501 1163L553 1139L543 1055ZM416 133Q453
119 529 119T663 171T756 310Q824 474 824 729Q824 906 744 967Q717 988 672 988Q594 988 522 891L416 133Z" />
<glyph unicode="q" glyph-name="q" horiz-adv-x="1227" d="M679 84Q563 -20 404 -20Q227 -20 138 104Q60 214 60 402Q60 717 224 928Q338 1075 526 1134Q621 1163 695 1163T805 1159T874 1147Q942 1133 991 1115L990 1114L1153 1163L961 -274Q957 -301 966 -323T1002
-346T1091 -300L1119 -373Q1058 -457 938 -500Q885 -518 822 -518T720 -503T656 -462Q611 -417 616 -347L679 84ZM815 1008Q772 1023 712 1023T606 997T524 925T466 819T428 690Q401 566 401 427Q401 154 545 154Q631 154 704 252L815 1008Z" />
<glyph unicode="r" glyph-name="r" horiz-adv-x="843" d="M523 866Q609 1163 818 1163Q856 1163 888 1143L819 786Q793 817 723 817Q603 817 508 760L403 0H80L212 962L105 1022L122 1111L450 1163L503 1139L523 866Z" />
<glyph unicode="s" glyph-name="s" horiz-adv-x="873" d="M785 919Q694 1019 581 1019Q472 1019 434 954Q421 932 421 902Q421 844 454 806Q501 752 571 702T677 617T742 539Q803 445 803 340T762 169T654 61Q525 -20 324 -20Q175 -20 51 26Q17 38 3 49L51 250Q123
178 233 146Q274 134 309 134T373 140T424 161Q476 193 476 257Q476 312 440 353Q391 410 326 455T225 532T162 605Q99 700 99 804T135 971T234 1077Q362 1163 568 1163Q686 1163 750 1148T828 1126L785 919Z" />
<glyph unicode="t" glyph-name="t" horiz-adv-x="724" d="M512 170Q613 170 681 227L706 147Q612 40 446 -3Q381 -20 322 -20T228 -12T166 18Q106 65 106 159Q106 185 114 254L214 994H95L119 1103L241 1150Q318 1217 402 1416H591L558 1155H766L743 994H537L454
390Q439 283 439 251Q439 170 512 170Z" />
<glyph unicode="u" glyph-name="u" horiz-adv-x="1276" d="M138 114Q109 163 109 216T112 313T122 404T136 501L204 962L78 1042L94 1131L497 1163L549 1139L480 589Q443 326 443 268Q443 148 538 148Q645 148 732 247L856 1155H1182L1054 227Q1044 151 1094 151Q1118
151 1142 167L1186 197L1214 124Q1159 42 1042 -2Q994 -20 934 -20Q827 -20 788 20T748 113Q748 128 751 143L747 146Q681 72 626 41Q520 -20 400 -20Q217 -20 138 114Z" />
<glyph unicode="v" glyph-name="v" horiz-adv-x="1083" d="M324 -21L122 925Q103 1025 4 948L-25 1028Q33 1103 144 1146Q189 1163 261 1163T383 1128T443 1026L549 455L578 239L652 367L705 472Q788 642 788 802Q788 838 776 890Q755 986 755 1020T765 1079T795
1124Q838 1163 903 1163T1002 1145T1054 1096Q1086 1043 1086 970T1073 844T1037 733T983 613T917 494Q848 379 772 284L516 -9L324 -21Z" />
<glyph unicode="w" glyph-name="w" horiz-adv-x="1742" d="M325 -20L123 925Q113 979 79 981Q51 982 4 948L-25 1028Q25 1100 144 1146Q190 1163 261 1163T381 1128T442 1026L532 439L558 228L645 510L834 1155H1111L1229 405L1259 228L1348 393Q1446 575 1446
775Q1446 828 1435 885Q1414 994 1414 1024T1424 1079T1454 1124Q1497 1163 1562 1163T1661 1145T1713 1096Q1745 1041 1745 969T1731 842T1692 725T1633 599T1564 475T1492 360L1425 262L1231 -8L991 -18L923 355L885 623L884 761L837 623L743 327L608 -4L325
-20Z" />
<glyph unicode="x" glyph-name="x" horiz-adv-x="1030" d="M916 179T944 179T1026 217L1071 133Q1018 50 865 0Q804 -20 726 -20Q586 -20 548 85L449 373L216 0H-99L364 587L199 901L182 930Q152 984 121 984Q73 984 41 965L2 1049Q50 1111 190 1148Q243 1163
316 1163Q470 1163 503 1058L588 806L810 1155H1115L668 587L827 299Q863 226 889 203Z" />
<glyph unicode="y" glyph-name="y" horiz-adv-x="1084" d="M115 956T106 968T70 981T4 947L-25 1028Q0 1063 50 1096Q153 1163 245 1163Q417 1163 443 1026Q481 828 514 632L578 239L596 80L657 204Q791 478 791 737Q791 812 778 864Q755 962 755 1008T765 1079T795
1123Q837 1163 901 1163T998 1147T1050 1101Q1086 1048 1086 963T1066 795T1014 624Q961 479 890 340L664 -98L622 -172Q604 -205 587 -232L552 -286Q475 -394 412 -437Q292 -518 152 -518Q35 -518 -76 -486Q-103 -479 -116 -473L-65 -258Q-6 -307 120 -338Q164
-349 209 -349T293 -335T370 -287Q439 -226 523 -71H332L122 925Q115 956 106 968Z" />
<glyph unicode="z" glyph-name="z" horiz-adv-x="1011" d="M33 -23L-29 39L617 831L710 883L407 884Q289 884 248 792Q235 764 232 733H144Q134 788 134 827T134 890T138 957T150 1039Q169 1122 211 1141Q264 1163 308 1163T402 1161T506 1154L726 1137Q843 1128
908 1128T1015 1163L1068 1102L419 300L347 257H675Q795 257 840 356Q854 385 857 419H942Q950 358 950 299T946 195T934 112Q914 22 875 -3Q846 -23 770 -23Q673 -23 527 -13T324 2Q187 10 125 10T33 -23Z" />
<glyph unicode="{" glyph-name="braceleft" horiz-adv-x="1044" d="M1033 1718Q1013 1628 1013 1601H737L641 970Q629 886 508 828Q485 816 458 804L398 776Q504 722 533 692Q590 633 581 575L486 -55H761Q759 -61 757 -81T752 -125T745 -179Q623 -215 567 -220T467
-226T379 -219T299 -196Q222 -159 222 -83Q222 -69 233 5L269 259Q289 402 316 579Q316 635 188 686Q144 703 99 714L117 838Q362 898 374 966L458 1513Q491 1716 662 1754Q714 1765 760 1765Q841 1765 1033 1718Z" />
<glyph unicode="|" glyph-name="bar" horiz-adv-x="854" d="M340 1780H553V-186H340V1780Z" />
<glyph unicode="}" glyph-name="braceright" horiz-adv-x="1044" d="M15 -172Q35 -82 35 -55H311L407 576Q419 660 540 718Q563 730 590 742L650 770Q544 824 515 854Q458 913 467 971L562 1601H287Q289 1607 291 1627T296 1671T303 1725Q425 1761 481 1766T581
1772T669 1765T749 1742Q826 1705 826 1629Q826 1615 815 1541L779 1287Q759 1144 732 967Q732 911 860 860Q904 843 949 832L931 708Q686 648 674 580L590 33Q557 -170 386 -208Q334 -219 288 -219Q207 -219 15 -172Z" />
<glyph unicode="~" glyph-name="asciitilde" horiz-adv-x="1137" d="M384 854Q257 854 192 757L108 876Q135 956 220 1017Q315 1086 420 1086Q527 1086 623 1010T782 934Q903 934 974 1041L1078 922Q1055 836 962 766Q865 692 756 692Q647 692 544 773L493 812Q435
854 384 854Z" />
<glyph unicode="&#xa1;" glyph-name="exclamdown" horiz-adv-x="716" d="M381 -434H46L304 816H507L381 -434ZM621 1267Q632 1238 632 1197T615 1119T570 1056Q514 1003 441 1003Q370 1003 330 1052Q293 1097 293 1156T311 1252T358 1315Q415 1364 495 1364Q584
1364 621 1267Z" />
<glyph unicode="&#xa2;" glyph-name="cent" horiz-adv-x="1056" d="M633 169Q789 169 887 297L951 194Q871 69 695 10Q630 -12 551 -18L515 -215H365L403 -9Q271 22 196 137Q117 257 117 464Q117 701 238 886Q377 1100 623 1149L669 1358H819L776 1163Q918 1163
1019 1125L926 803Q905 809 871 848L815 911Q731 1006 691 1006T608 966Q516 880 476 682Q458 594 458 535T459 428T471 326T504 236Q545 169 633 169Z" />
<glyph unicode="&#xa3;" glyph-name="sterling" horiz-adv-x="1395" d="M959 518L1166 697Q1288 623 1338 465Q1355 411 1355 341T1321 203T1220 86Q1076 -20 822 -20Q674 -20 560 8T382 53T255 84Q181 21 85 -8Q47 -20 6 -20T-66 2T-96 58T-76 119T-22 167Q55
215 149 215Q221 324 238 423L290 724H143L161 905H322L342 1017Q381 1244 550 1401Q726 1565 951 1565Q1167 1565 1259 1469L1156 1261Q1120 1342 1026 1386Q985 1406 942 1406T864 1397T796 1358Q723 1290 691 1122L649 905H894L877 724H615L586 571Q559 430
472 303Q439 254 412 225T379 188Q572 154 699 154T894 174T1000 224Q1063 276 1063 361T959 518Z" />
<glyph unicode="&#xa4;" glyph-name="currency" horiz-adv-x="1540" d="M1014 317Q907 252 785 252T557 313L346 102L204 243L412 451Q342 561 342 690Q342 817 410 925L201 1135L342 1277L553 1064Q662 1128 786 1128T1021 1058L1228 1264L1369 1122L1160 913Q1222
808 1222 686T1156 459L1367 248L1225 107L1014 317ZM576 690Q576 601 636 538Q696 474 782 474Q868 474 928 538Q988 601 988 690Q988 779 928 842Q868 906 782 906Q696 906 636 842Q576 779 576 690Z" />
<glyph unicode="&#xa5;" glyph-name="yen" horiz-adv-x="1483" d="M286 106L565 136L595 376H239L255 524H613L635 700H276L294 852H554L265 1394L151 1420L166 1532H849L834 1420L652 1394L841 904L934 1044L1156 1402L1036 1420L1051 1532H1610L1595 1420L1465
1392L1051 852H1280L1262 700H935L912 524H1240L1224 376H893L862 136L1155 106L1145 0H274L286 106Z" />
<glyph unicode="&#xa6;" glyph-name="brokenbar" horiz-adv-x="854" d="M340 1780H553V916H340V1780ZM340 678H553V-186H340V678Z" />
<glyph unicode="&#xa7;" glyph-name="section" horiz-adv-x="1194" d="M947 396Q1015 305 1015 201T975 27T866 -89Q722 -186 501 -186Q279 -186 113 -137Q69 -124 49 -111L105 237H294L321 13Q404 -40 516 -40Q726 -40 726 123Q726 197 628 262Q584 292 528 320L412
381Q265 462 209 525T126 652T99 798Q99 961 248 1090Q186 1180 186 1280T229 1451T344 1571Q494 1673 710 1673Q938 1673 1077 1624Q1114 1611 1134 1598L1078 1270H889L862 1477Q797 1530 695 1530Q597 1530 556 1510T495 1461T475 1381T501 1291T570 1220T668
1162L780 1106Q929 1033 981 978Q1086 869 1086 728Q1086 530 947 396ZM402 952Q379 916 379 873T397 797T447 736T520 684T608 634L704 584Q754 558 800 528Q822 562 822 609T804 689T754 748T681 800T592 849L497 898Q448 923 402 952Z" />
<glyph unicode="&#xa8;" glyph-name="dieresis" horiz-adv-x="809" d="M694 1354Q660 1338 621 1338T556 1352T510 1390Q445 1468 482 1582Q505 1654 570 1686Q603 1701 642 1701T709 1687Q795 1644 795 1545Q795 1401 694 1354ZM242 1354Q208 1338 169 1338T104
1352Q50 1382 27 1444Q17 1472 17 1487T17 1524T29 1581T64 1644Q112 1701 193 1701Q261 1701 304 1650Q343 1606 343 1545Q343 1401 242 1354Z" />
<glyph unicode="&#xa9;" glyph-name="copyright" horiz-adv-x="1768" d="M158 806Q158 913 186 1012T264 1197T385 1353T542 1474Q723 1579 933 1579Q1143 1579 1324 1474Q1595 1317 1681 1012Q1709 913 1709 806Q1709 595 1602 414Q1500 239 1324 137Q1143 32
933 32Q723 32 542 137Q368 238 264 414Q158 595 158 806ZM297 806Q297 537 482 348Q667 158 933 158Q1200 158 1386 348Q1503 468 1548 634Q1570 717 1570 806Q1570 1073 1386 1264Q1270 1383 1104 1430Q1022 1454 933 1454Q760 1454 610 1365Q468 1281 383 1132Q297
981 297 806ZM953 512Q1086 512 1173 562L1213 458Q1145 399 1008 374Q965 366 898 366T760 400T642 494Q542 617 542 802Q542 805 542 808Q542 991 654 1114Q774 1247 969 1247Q1132 1247 1203 1209V974H1099L1055 1094Q1012 1133 958 1133T866 1113T802 1056Q746
978 746 861Q746 855 746 804T763 687T810 582Q863 512 953 512Z" />
<glyph unicode="&#xaa;" glyph-name="ordfeminine" horiz-adv-x="854" d="M810 866Q831 866 866 886L899 832Q868 795 740 755Q702 743 651 743T568 776T537 853Q537 861 538 869Q490 810 452 788Q376 743 301 743T182 763T107 822Q44 901 44 1040Q44 1238 203
1403Q306 1510 448 1554Q519 1577 603 1577T768 1550L915 1586L798 920Q793 895 797 881T810 866ZM328 964T346 923T406 881Q478 881 535 936L626 1459Q599 1475 573 1475Q451 1475 384 1338Q328 1224 328 1055Q328 964 346 923Z" />
<glyph unicode="&#xab;" glyph-name="guillemotleft" horiz-adv-x="1878" d="M472 690L1204 1096L1262 921L802 605L1176 294L1076 142L450 530L472 690ZM891 690L1623 1096L1681 921L1221 605L1595 294L1495 142L869 530L891 690Z" />
<glyph unicode="&#xac;" glyph-name="logicalnot" horiz-adv-x="1370" d="M228 873H1208L1146 322H929L972 701H209L228 873Z" />
<glyph unicode="&#xae;" glyph-name="registered" horiz-adv-x="1768" d="M158 806Q158 913 186 1012T264 1197T385 1353T542 1474Q723 1579 933 1579Q1143 1579 1324 1474Q1595 1317 1681 1012Q1709 913 1709 806Q1709 595 1602 414Q1500 239 1324 137Q1143 32
933 32Q723 32 542 137Q368 238 264 414Q158 595 158 806ZM297 806Q297 537 482 348Q667 158 933 158Q1200 158 1386 348Q1503 468 1548 634Q1570 717 1570 806Q1570 1073 1386 1264Q1270 1383 1104 1430Q1022 1454 933 1454Q760 1454 610 1365Q468 1281 383 1132Q297
981 297 806ZM716 1240L954 1245Q1195 1245 1266 1108Q1288 1066 1289 1020T1285 935T1258 860Q1211 782 1075 737Q1149 695 1203 594L1242 520Q1261 486 1291 465Q1315 453 1338 453V375H1128Q1096 375 1070 429Q1058 454 1045 487T1014 559Q967 654 903 720H834V469L926
449V375H562V449L645 469V1134L562 1156V1240H716ZM1083 993Q1083 1125 927 1125H902Q879 1125 866 1122L834 1115V848Q876 840 930 840T1010 851T1051 884Q1083 924 1083 993Z" />
<glyph unicode="&#xaf;" glyph-name="overscore" horiz-adv-x="614" d="M11 1614H582V1405H11V1614Z" />
<glyph unicode="&#xb0;" glyph-name="degree" horiz-adv-x="957" d="M524 934Q448 934 386 961Q257 1016 206 1144Q182 1205 182 1273Q182 1423 286 1523Q388 1621 543 1621Q689 1621 790 1520Q886 1424 886 1283Q886 1132 780 1032Q676 934 524 934ZM430 1120T461
1106T531 1091T601 1105T658 1144Q710 1198 710 1278Q710 1281 710 1300T697 1351T661 1410Q612 1464 537 1464Q460 1464 409 1411T358 1278Q358 1275 358 1256T370 1204T406 1146Z" />
<glyph unicode="&#xb1;" glyph-name="plusminus" horiz-adv-x="1330" d="M558 516L584 680L443 673H248L266 871H482L620 860L633 1025L660 1255H878L852 1025L823 861L938 871H1163L1145 673H900L788 680Q786 638 783 598T778 516L750 275H531L558 516ZM197 180H1046L1029
0H180L197 180Z" />
<glyph unicode="&#xb2;" glyph-name="twosuperior" horiz-adv-x="1163" d="M160 733Q341 838 504 978Q640 1095 702 1213Q734 1274 734 1317T723 1387T691 1436Q644 1484 569 1484T417 1445T279 1336L199 1450Q251 1521 368 1588Q505 1667 623 1667T814 1642T931
1574Q1006 1499 1006 1376Q1006 1144 730 934Q641 865 525 793L930 838L1025 973L1128 944L1033 637H205L160 733Z" />
<glyph unicode="&#xb3;" glyph-name="threesuperior" horiz-adv-x="1071" d="M629 1671Q994 1671 994 1432Q994 1279 816 1196Q760 1171 691 1151Q848 1151 924 1070Q981 1008 981 917T932 759T804 647Q650 561 435 561Q334 561 222 602Q184 615 155 633L172 781Q274
730 427 730Q547 730 600 759T679 829T704 918T691 989T655 1026Q612 1051 529 1053L355 1008L384 1181Q598 1219 680 1329Q709 1369 709 1402T700 1451T672 1480Q631 1509 554 1509Q428 1509 306 1415L260 1547Q371 1635 532 1662Q581 1671 629 1671Z" />
<glyph unicode="&#xb4;" glyph-name="acute" horiz-adv-x="559" d="M50 1312L367 1743L559 1556Q530 1500 387 1385Q233 1260 153 1231L50 1312Z" />
<glyph unicode="&#xb5;" glyph-name="mu" horiz-adv-x="1364" d="M970 -20Q825 -20 825 93Q825 105 827 118Q814 106 796 83T748 36Q673 -20 574 -20Q471 -20 402 23Q379 37 367 56L306 -372H41L149 358Q158 429 170 496L192 633Q217 791 229 923Q229 981 186
981Q151 981 112 949L82 1028Q91 1036 112 1058T170 1104Q262 1163 389 1163Q519 1163 557 1095Q578 1058 559 914T529 703T511 598T498 520Q486 431 486 364T497 262T527 206Q558 170 601 170T668 181T711 209T744 248L773 288L892 1155H1218L1090 227Q1080 151
1130 151Q1156 151 1186 172L1222 197L1250 124Q1200 40 1072 -4Q1025 -20 970 -20Z" />
<glyph unicode="&#xb6;" glyph-name="paragraph" horiz-adv-x="1364" d="M144 87L349 117L422 678Q272 678 166 794Q60 909 60 1073Q60 1571 715 1571Q796 1571 842 1568L918 1563Q1054 1554 1141 1552H1438L1427 1449L1260 1416Q1242 1261 1221 1096L1135 436Q1114
272 1096 116L1251 86L1242 0H801L976 1414H782L605 0H136L144 87Z" />
<glyph unicode="&#xb7;" glyph-name="middot" horiz-adv-x="716" d="M183 723Q172 752 172 793T189 871T233 934Q290 987 363 987Q434 987 475 938Q511 893 511 834T493 738T446 675Q389 626 309 626Q220 626 183 723Z" />
<glyph unicode="&#xb8;" glyph-name="cedilla" horiz-adv-x="479" d="M229 -266T243 -234T259 -169T261 -91T245 30L322 34L405 30Q440 -22 456 -164Q460 -204 460 -238Q460 -484 162 -484Q80 -484 26 -473T-36 -456L-1 -303Q29 -319 72 -319T147 -311T204 -285Z" />
<glyph unicode="&#xb9;" glyph-name="onesuperior" horiz-adv-x="1020" d="M253 744L449 770L531 1375L310 1333L298 1446Q360 1465 423 1494Q646 1600 704 1645L823 1624L704 770L909 743L898 636H242L253 744Z" />
<glyph unicode="&#xba;" glyph-name="ordmasculine" horiz-adv-x="854" d="M687 798T599 766T423 733T271 758T158 829Q58 927 58 1085Q58 1316 212 1460Q351 1589 542 1589Q713 1589 810 1488Q903 1392 903 1252T863 1019T755 862ZM341 1296T332 1230T322 1073T351
916T425 848T500 862T555 903T594 965T620 1042Q637 1118 637 1197T630 1325T608 1408Q577 1481 521 1481T426 1444T364 1352Z" />
<glyph unicode="&#xbb;" glyph-name="guillemotright" horiz-adv-x="1878" d="M891 548L159 142L101 317L561 633L187 944L287 1096L913 708L891 548ZM1567 548L835 142L777 317L1237 633L863 944L963 1096L1589 708L1567 548Z" />
<glyph unicode="&#xbc;" glyph-name="onequarter" horiz-adv-x="2560" d="M284 744L480 770L562 1375L341 1333L329 1446Q391 1465 454 1494Q677 1600 735 1645L854 1624L735 770L940 743L929 636H273L284 744ZM1943 157H1394L1357 252L1931 1115L2089 1116L2212
1012L1764 439L1637 305L1965 316L1998 548L2245 571L2212 325L2401 332L2381 157H2189L2144 -174H1896L1943 157ZM1465 1530H1684L1003 0H784L1465 1530Z" />
<glyph unicode="&#xbd;" glyph-name="onehalf" horiz-adv-x="2560" d="M1465 1530H1684L1003 0H784L1465 1530ZM284 744L480 770L562 1375L341 1333L329 1446Q391 1465 454 1494Q677 1600 735 1645L854 1624L735 770L940 743L929 636H273L284 744ZM1395 19Q1576
124 1739 264Q1875 381 1937 499Q1969 560 1969 603T1958 673T1926 722Q1879 770 1804 770T1652 731T1514 622L1434 736Q1486 807 1603 874Q1740 953 1858 953T2049 928T2166 860Q2241 785 2241 662Q2241 430 1965 220Q1876 151 1760 79L2165 124L2260 259L2363
230L2268 -77H1440L1395 19Z" />
<glyph unicode="&#xbe;" glyph-name="threequarters" horiz-adv-x="2575" d="M636 1671Q1001 1671 1001 1432Q1001 1279 823 1196Q767 1171 698 1151Q855 1151 931 1070Q988 1008 988 917T939 759T811 647Q657 561 442 561Q341 561 229 602Q191 615 162 633L179
781Q281 730 434 730Q554 730 607 759T686 829T711 918T698 989T662 1026Q619 1051 536 1053L362 1008L391 1181Q605 1219 687 1329Q716 1369 716 1402T707 1451T679 1480Q638 1509 561 1509Q435 1509 313 1415L267 1547Q378 1635 539 1662Q588 1671 636 1671ZM1943
157H1394L1357 252L1931 1115L2089 1116L2212 1012L1764 439L1637 305L1965 316L1998 548L2245 571L2212 325L2401 332L2381 157H2189L2144 -174H1896L1943 157ZM1465 1530H1684L1003 0H784L1465 1530Z" />
<glyph unicode="&#xbf;" glyph-name="questiondown" horiz-adv-x="1013" d="M756 1097T720 1085T652 1073T595 1085T552 1119Q511 1167 511 1224T528 1318T572 1381Q629 1434 702 1434Q773 1434 814 1384Q850 1340 850 1281T832 1185T785 1122ZM610 696Q637 755
638 800T636 885L825 940L839 939Q889 867 889 787T863 649T792 544Q722 467 572 379Q431 306 352 221Q321 155 321 98T342 -11T408 -101Q504 -184 664 -184Q759 -184 875 -126L819 -346Q773 -388 635 -412Q595 -419 562 -419Q294 -419 160 -291Q50 -185 50 -15Q50
220 233 361Q285 401 340 438L447 510Q562 590 610 696Z" />
<glyph unicode="&#xc0;" glyph-name="Agrave" horiz-adv-x="1375" d="M667 1530H1014L1261 138L1422 106L1416 0H727L732 106L889 135L849 416H339L214 136L402 106L394 0H-164L-156 106L-18 135L667 1530ZM828 567L750 1117L741 1316L406 567H828ZM822 1570Q741
1599 662 1654Q515 1756 475 1829L662 2014L938 1672L822 1570Z" />
<glyph unicode="&#xc1;" glyph-name="Aacute" horiz-adv-x="1375" d="M667 1530H1014L1261 138L1422 106L1416 0H727L732 106L889 135L849 416H339L214 136L402 106L394 0H-164L-156 106L-18 135L667 1530ZM828 567L750 1117L741 1316L406 567H828ZM715 1672L991
2014L1178 1829Q1142 1760 1021 1675Q915 1600 831 1570L715 1672Z" />
<glyph unicode="&#xc2;" glyph-name="Acircumflex" horiz-adv-x="1375" d="M667 1530H1014L1261 138L1422 106L1416 0H727L732 106L889 135L849 416H339L214 136L402 106L394 0H-164L-156 106L-18 135L667 1530ZM828 567L750 1117L741 1316L406 567H828ZM468 1657L835
2014H1013L1223 1657L1099 1599L898 1806L575 1600L468 1657Z" />
<glyph unicode="&#xc3;" glyph-name="Atilde" horiz-adv-x="1375" d="M667 1530H1014L1261 138L1422 106L1416 0H727L732 106L889 135L849 416H339L214 136L402 106L394 0H-164L-156 106L-18 135L667 1530ZM828 567L750 1117L741 1316L406 567H828ZM578 1677L501
1801Q532 1866 607 1917Q684 1970 740 1970T825 1959T877 1931T919 1895Q919 1895 955 1859Q996 1820 1030 1820T1086 1829T1126 1852Q1152 1872 1189 1920L1277 1789Q1250 1721 1178 1666Q1102 1608 1042 1608T951 1619T896 1646T855 1682T817 1718Q772 1756 713
1757T578 1677Z" />
<glyph unicode="&#xc4;" glyph-name="Adieresis" horiz-adv-x="1375" d="M667 1530H1014L1261 138L1422 106L1416 0H727L732 106L889 135L849 416H339L214 136L402 106L394 0H-164L-156 106L-18 135L667 1530ZM828 567L750 1117L741 1316L406 567H828ZM898 1746T900
1818T946 1937T1065 1984T1174 1944T1210 1833T1167 1711T1050 1661T937 1703ZM448 1888T493 1936T613 1984T722 1944T758 1833T715 1711T598 1661T486 1702T448 1816Z" />
<glyph unicode="&#xc5;" glyph-name="Aring" horiz-adv-x="1375" d="M1196 1791Q1196 1601 1014 1526L1261 138L1422 106L1416 0H727L732 106L889 135L849 416H339L214 136L402 106L394 0H-164L-156 106L-18 135L660 1515Q507 1568 507 1721Q507 1879 642 1956Q744
2014 893 2014Q1107 2014 1174 1889Q1196 1847 1196 1791ZM838 1630Q1003 1630 1003 1763Q1003 1814 962 1848Q924 1878 882 1878T810 1872T756 1851Q701 1817 701 1744Q701 1667 788 1638Q813 1630 838 1630ZM828 567L750 1117L741 1316L406 567H828Z" />
<glyph unicode="&#xc6;" glyph-name="AE" horiz-adv-x="2084" d="M773 1394L437 1420L452 1530H2018L1982 1160H1770L1736 1384L1387 1410L1320 881L1764 905L1741 687L1300 712L1222 136L1701 171L1818 468L2031 454L1961 0H671L685 106L875 136L910 416H436L282
136L472 106L464 0H-163L-155 106L2 136L773 1394ZM929 567L1034 1394H975L519 567H929Z" />
<glyph unicode="&#xc7;" glyph-name="Ccedilla" horiz-adv-x="1312" d="M395 -301Q425 -317 468 -317T543 -309T600 -282Q657 -240 657 -118Q657 -70 649 -15Q250 -4 116 318Q60 455 60 653T123 1020T303 1308Q541 1549 949 1549Q1142 1549 1252 1516Q1280 1507
1308 1501L1341 1492L1280 1092H1027L987 1402Q940 1420 877 1420T749 1387T635 1296T549 1164Q451 957 451 686Q451 145 731 145Q824 145 871 168T940 212T972 256T993 305T1012 361L1028 419L1229 420L1186 136Q1042 16 820 -8Q856 -121 856 -236Q856 -482 558
-482Q476 -482 422 -471T360 -454L395 -301Z" />
<glyph unicode="&#xc8;" glyph-name="Egrave" horiz-adv-x="1329" d="M-32 106L128 136L292 1394L147 1420L158 1530H1276L1240 1160H1018L984 1384L645 1410L573 881L1017 905L994 687L553 712L475 136L938 171L1055 468L1268 454L1198 0H-46L-32 106ZM828 1570Q747
1599 668 1654Q521 1756 481 1829L668 2014L944 1672L828 1570Z" />
<glyph unicode="&#xc9;" glyph-name="Eacute" horiz-adv-x="1329" d="M-32 106L128 136L292 1394L147 1420L158 1530H1276L1240 1160H1018L984 1384L645 1410L573 881L1017 905L994 687L553 712L475 136L938 171L1055 468L1268 454L1198 0H-46L-32 106ZM721 1672L997
2014L1184 1829Q1148 1760 1027 1675Q921 1600 837 1570L721 1672Z" />
<glyph unicode="&#xca;" glyph-name="Ecircumflex" horiz-adv-x="1329" d="M-32 106L128 136L292 1394L147 1420L158 1530H1276L1240 1160H1018L984 1384L645 1410L573 881L1017 905L994 687L553 712L475 136L938 171L1055 468L1268 454L1198 0H-46L-32 106ZM474
1657L841 2014H1019L1229 1657L1105 1599L904 1806L581 1600L474 1657Z" />
<glyph unicode="&#xcb;" glyph-name="Edieresis" horiz-adv-x="1329" d="M-32 106L128 136L292 1394L147 1420L158 1530H1276L1240 1160H1018L984 1384L645 1410L573 881L1017 905L994 687L553 712L475 136L938 171L1055 468L1268 454L1198 0H-46L-32 106ZM904
1746T906 1818T952 1937T1071 1984T1180 1944T1216 1833T1173 1711T1056 1661T943 1703ZM454 1888T499 1936T619 1984T728 1944T764 1833T721 1711T604 1661T492 1702T454 1816Z" />
<glyph unicode="&#xcc;" glyph-name="Igrave" horiz-adv-x="783" d="M-5 106L145 136L310 1394L163 1420L175 1530H846L834 1420L662 1394L497 136L672 106L665 0H-18L-5 106ZM547 1570Q466 1599 387 1654Q240 1756 200 1829L387 2014L663 1672L547 1570Z" />
<glyph unicode="&#xcd;" glyph-name="Iacute" horiz-adv-x="783" d="M-5 106L145 136L310 1394L163 1420L175 1530H846L834 1420L662 1394L497 136L672 106L665 0H-18L-5 106ZM440 1672L716 2014L903 1829Q867 1760 746 1675Q640 1600 556 1570L440 1672Z" />
<glyph unicode="&#xce;" glyph-name="Icircumflex" horiz-adv-x="783" d="M-5 106L145 136L310 1394L163 1420L175 1530H846L834 1420L662 1394L497 136L672 106L665 0H-18L-5 106ZM193 1657L560 2014H738L948 1657L824 1599L623 1806L300 1600L193 1657Z" />
<glyph unicode="&#xcf;" glyph-name="Idieresis" horiz-adv-x="783" d="M-5 106L145 136L310 1394L163 1420L175 1530H846L834 1420L662 1394L497 136L672 106L665 0H-18L-5 106ZM623 1746T625 1818T671 1937T790 1984T899 1944T935 1833T892 1711T775 1661T662
1703ZM173 1888T218 1936T338 1984T447 1944T483 1833T440 1711T323 1661T211 1702T173 1816Z" />
<glyph unicode="&#xd0;" glyph-name="Eth" horiz-adv-x="1506" d="M-32 108L126 138L201 702H65L91 872H224L294 1396L150 1422L161 1532H478Q563 1533 654 1540T835 1548Q835 1548 842 1548Q1177 1548 1342 1368Q1488 1209 1488 923Q1488 253 1000 55Q830 -14
592 -14Q566 -14 533 -10T477 -5T428 -2Q366 2 324 2H-44L-32 108ZM477 138Q543 113 624 113T778 147T906 238T1001 373T1064 536Q1111 701 1111 865T1093 1131T1036 1298Q963 1422 802 1422Q688 1422 643 1396L574 872H870L844 702H551L477 138Z" />
<glyph unicode="&#xd1;" glyph-name="Ntilde" horiz-adv-x="1545" d="M-25 106L124 136L310 1394L140 1420L156 1530H713L1084 535L1162 305L1298 1394L1126 1420L1137 1530H1639L1628 1420L1505 1394L1293 0H935L544 1028L466 1282L341 136L531 106L520 0H-33L-25
106ZM688 1677L611 1801Q642 1866 717 1917Q794 1970 850 1970T935 1959T987 1931T1029 1895Q1029 1895 1065 1859Q1106 1820 1140 1820T1196 1829T1236 1852Q1262 1872 1299 1920L1387 1789Q1360 1721 1288 1666Q1212 1608 1152 1608T1061 1619T1006 1646T965
1682T927 1718Q882 1756 823 1757T688 1677Z" />
<glyph unicode="&#xd2;" glyph-name="Ograve" horiz-adv-x="1500" d="M55 624Q55 752 76 865T142 1079T252 1266T409 1416Q600 1550 865 1550Q1167 1550 1326 1351Q1465 1176 1465 893Q1465 519 1277 267Q1063 -20 655 -20Q353 -20 198 168Q55 342 55 624ZM1084
881Q1084 1426 838 1426Q651 1426 539 1183Q436 959 436 649Q436 102 684 102Q880 102 986 330Q1084 539 1084 881ZM877 1570Q796 1599 717 1654Q570 1756 530 1829L717 2014L993 1672L877 1570Z" />
<glyph unicode="&#xd3;" glyph-name="Oacute" horiz-adv-x="1500" d="M55 624Q55 752 76 865T142 1079T252 1266T409 1416Q600 1550 865 1550Q1167 1550 1326 1351Q1465 1176 1465 893Q1465 519 1277 267Q1063 -20 655 -20Q353 -20 198 168Q55 342 55 624ZM1084
881Q1084 1426 838 1426Q651 1426 539 1183Q436 959 436 649Q436 102 684 102Q880 102 986 330Q1084 539 1084 881ZM770 1672L1046 2014L1233 1829Q1197 1760 1076 1675Q970 1600 886 1570L770 1672Z" />
<glyph unicode="&#xd4;" glyph-name="Ocircumflex" horiz-adv-x="1500" d="M55 624Q55 752 76 865T142 1079T252 1266T409 1416Q600 1550 865 1550Q1167 1550 1326 1351Q1465 1176 1465 893Q1465 519 1277 267Q1063 -20 655 -20Q353 -20 198 168Q55 342 55 624ZM1084
881Q1084 1426 838 1426Q651 1426 539 1183Q436 959 436 649Q436 102 684 102Q880 102 986 330Q1084 539 1084 881ZM523 1657L890 2014H1068L1278 1657L1154 1599L953 1806L630 1600L523 1657Z" />
<glyph unicode="&#xd5;" glyph-name="Otilde" horiz-adv-x="1500" d="M55 624Q55 752 76 865T142 1079T252 1266T409 1416Q600 1550 865 1550Q1167 1550 1326 1351Q1465 1176 1465 893Q1465 519 1277 267Q1063 -20 655 -20Q353 -20 198 168Q55 342 55 624ZM1084
881Q1084 1426 838 1426Q651 1426 539 1183Q436 959 436 649Q436 102 684 102Q880 102 986 330Q1084 539 1084 881ZM633 1677L556 1801Q587 1866 662 1917Q739 1970 795 1970T880 1959T932 1931T974 1895Q974 1895 1010 1859Q1051 1820 1085 1820T1141 1829T1181
1852Q1207 1872 1244 1920L1332 1789Q1305 1721 1233 1666Q1157 1608 1097 1608T1006 1619T951 1646T910 1682T872 1718Q827 1756 768 1757T633 1677Z" />
<glyph unicode="&#xd6;" glyph-name="Odieresis" horiz-adv-x="1500" d="M55 624Q55 752 76 865T142 1079T252 1266T409 1416Q600 1550 865 1550Q1167 1550 1326 1351Q1465 1176 1465 893Q1465 519 1277 267Q1063 -20 655 -20Q353 -20 198 168Q55 342 55 624ZM1084
881Q1084 1426 838 1426Q651 1426 539 1183Q436 959 436 649Q436 102 684 102Q880 102 986 330Q1084 539 1084 881ZM953 1746T955 1818T1001 1937T1120 1984T1229 1944T1265 1833T1222 1711T1105 1661T992 1703ZM503 1888T548 1936T668 1984T777 1944T813 1833T770
1711T653 1661T541 1702T503 1816Z" />
<glyph unicode="&#xd7;" glyph-name="multiply" horiz-adv-x="1370" d="M203 440L585 766L284 1093L447 1245L728 895Q728 895 1096 1244L1225 1090L843 764L1144 437L981 285L700 635L332 286L203 440Z" />
<glyph unicode="&#xd8;" glyph-name="Oslash" horiz-adv-x="1499" d="M916 18Q800 -18 632 -18T328 60L199 -122L110 -73L246 120Q55 294 55 639Q55 1012 252 1268Q390 1447 612 1516Q726 1552 879 1552T1161 1487L1291 1670L1380 1621L1246 1432Q1465 1255 1465
895Q1465 521 1277 269Q1142 88 916 18ZM1017 1304Q957 1428 838 1428Q651 1428 539 1185Q436 961 436 651Q436 490 454 389L1017 1304ZM489 257Q549 104 684 104Q880 104 986 332Q1084 541 1084 883Q1084 1060 1059 1179L489 257Z" />
<glyph unicode="&#xd9;" glyph-name="Ugrave" horiz-adv-x="1447" d="M179 171T154 253T128 401Q128 530 135 593L235 1394L91 1420L104 1530H808L798 1421L601 1394L504 623Q487 475 487 413T501 293T546 192Q609 104 732 104Q986 104 1075 412Q1103 508 1119
626L1223 1394L1055 1421L1066 1530H1550L1535 1421L1406 1394L1309 627Q1264 280 1105 127Q952 -20 670 -20Q375 -20 241 110Q179 171 154 253ZM953 1570Q872 1599 793 1654Q646 1756 606 1829L793 2014L1069 1672L953 1570Z" />
<glyph unicode="&#xda;" glyph-name="Uacute" horiz-adv-x="1447" d="M179 171T154 253T128 401Q128 530 135 593L235 1394L91 1420L104 1530H808L798 1421L601 1394L504 623Q487 475 487 413T501 293T546 192Q609 104 732 104Q986 104 1075 412Q1103 508 1119
626L1223 1394L1055 1421L1066 1530H1550L1535 1421L1406 1394L1309 627Q1264 280 1105 127Q952 -20 670 -20Q375 -20 241 110Q179 171 154 253ZM846 1672L1122 2014L1309 1829Q1273 1760 1152 1675Q1046 1600 962 1570L846 1672Z" />
<glyph unicode="&#xdb;" glyph-name="Ucircumflex" horiz-adv-x="1447" d="M179 171T154 253T128 401Q128 530 135 593L235 1394L91 1420L104 1530H808L798 1421L601 1394L504 623Q487 475 487 413T501 293T546 192Q609 104 732 104Q986 104 1075 412Q1103 508
1119 626L1223 1394L1055 1421L1066 1530H1550L1535 1421L1406 1394L1309 627Q1264 280 1105 127Q952 -20 670 -20Q375 -20 241 110Q179 171 154 253ZM599 1657L966 2014H1144L1354 1657L1230 1599L1029 1806L706 1600L599 1657Z" />
<glyph unicode="&#xdc;" glyph-name="Udieresis" horiz-adv-x="1447" d="M179 171T154 253T128 401Q128 530 135 593L235 1394L91 1420L104 1530H808L798 1421L601 1394L504 623Q487 475 487 413T501 293T546 192Q609 104 732 104Q986 104 1075 412Q1103 508 1119
626L1223 1394L1055 1421L1066 1530H1550L1535 1421L1406 1394L1309 627Q1264 280 1105 127Q952 -20 670 -20Q375 -20 241 110Q179 171 154 253ZM1029 1746T1031 1818T1077 1937T1196 1984T1305 1944T1341 1833T1298 1711T1181 1661T1068 1703ZM579 1888T624 1936T744
1984T853 1944T889 1833T846 1711T729 1661T617 1702T579 1816Z" />
<glyph unicode="&#xdd;" glyph-name="Yacute" horiz-adv-x="1281" d="M173 106L403 136L461 605L130 1394L19 1420L31 1530H715L698 1420L517 1394L689 908L742 785L1096 1394L932 1420L942 1530H1475L1460 1420L1330 1394L815 605L754 136L999 106L989 0H161L173
106ZM698 1672L974 2014L1161 1829Q1125 1760 1004 1675Q898 1600 814 1570L698 1672Z" />
<glyph unicode="&#xde;" glyph-name="Thorn" horiz-adv-x="1290" d="M973 426T868 404T649 382T510 385L479 136L653 106L645 0H-22L-11 106L127 136L287 1394L142 1420L156 1530H831L819 1420L639 1394L614 1201Q737 1209 844 1209T1044 1181T1188 1107Q1283
1024 1283 860Q1283 742 1249 671T1169 550T1048 463ZM953 836Q953 1083 726 1083Q657 1083 598 1072L527 519Q545 518 562 518L637 519Q861 519 932 702Q953 759 953 836Z" />
<glyph unicode="&#xdf;" glyph-name="germandbls" horiz-adv-x="1193" d="M120 927Q191 1435 521 1548Q629 1585 747 1585T939 1565T1070 1506Q1194 1422 1194 1283Q1194 1099 1040 1006L966 959Q887 906 887 841Q887 800 943 724L987 666Q1012 635 1042 602T1098
529Q1158 439 1158 348T1128 190T1041 78Q926 -16 732 -16Q537 -16 443 31L469 218Q509 158 600 126Q629 116 659 116T718 121T770 143Q819 180 819 285Q819 364 758 470L727 523Q657 618 628 724Q618 760 618 794T626 856T648 908Q671 944 729 1003Q864 1140 864
1287Q864 1409 787 1450Q761 1464 718 1464T632 1432T552 1329Q483 1189 447 867L340 0H7L120 927Z" />
<glyph unicode="&#xe0;" glyph-name="agrave" horiz-adv-x="1215" d="M717 106Q591 -20 413 -20Q235 -20 142 104Q60 216 60 402Q60 713 234 928Q352 1076 538 1134Q633 1163 746 1163T984 1120L1136 1163L1007 227Q998 151 1046 151Q1080 151 1139 197L1167 124Q1114
42 994 -2Q946 -20 880 -20T766 12T717 106ZM680 209L790 1017Q757 1023 709 1023T614 997T532 925T473 819T434 690Q406 563 406 426T445 222T551 154T680 209ZM707 1241Q596 1288 431 1440Q351 1513 321 1566L524 1743L812 1311L707 1241Z" />
<glyph unicode="&#xe1;" glyph-name="aacute" horiz-adv-x="1215" d="M717 106Q591 -20 413 -20Q235 -20 142 104Q60 216 60 402Q60 713 234 928Q352 1076 538 1134Q633 1163 746 1163T984 1120L1136 1163L1007 227Q998 151 1046 151Q1080 151 1139 197L1167 124Q1114
42 994 -2Q946 -20 880 -20T766 12T717 106ZM680 209L790 1017Q757 1023 709 1023T614 997T532 925T473 819T434 690Q406 563 406 426T445 222T551 154T680 209ZM649 1312L966 1743L1158 1556Q1129 1500 986 1385Q832 1260 752 1231L649 1312Z" />
<glyph unicode="&#xe2;" glyph-name="acircumflex" horiz-adv-x="1215" d="M717 106Q591 -20 413 -20Q235 -20 142 104Q60 216 60 402Q60 713 234 928Q352 1076 538 1134Q633 1163 746 1163T984 1120L1136 1163L1007 227Q998 151 1046 151Q1080 151 1139 197L1167
124Q1114 42 994 -2Q946 -20 880 -20T766 12T717 106ZM680 209L790 1017Q757 1023 709 1023T614 997T532 925T473 819T434 690Q406 563 406 426T445 222T551 154T680 209ZM394 1296L761 1670H939L1149 1296L1025 1238L824 1432L501 1239L394 1296Z" />
<glyph unicode="&#xe3;" glyph-name="atilde" horiz-adv-x="1215" d="M717 106Q591 -20 413 -20Q235 -20 142 104Q60 216 60 402Q60 713 234 928Q352 1076 538 1134Q633 1163 746 1163T984 1120L1136 1163L1007 227Q998 151 1046 151Q1080 151 1139 197L1167 124Q1114
42 994 -2Q946 -20 880 -20T766 12T717 106ZM680 209L790 1017Q757 1023 709 1023T614 997T532 925T473 819T434 690Q406 563 406 426T445 222T551 154T680 209ZM462 1387L385 1511Q416 1576 491 1627Q568 1680 624 1680T709 1669T761 1641T803 1605Q803 1605 839
1569Q880 1530 914 1530T970 1539T1010 1562Q1036 1582 1073 1630L1161 1499Q1134 1431 1062 1376Q986 1318 926 1318T835 1329T780 1356T739 1392T701 1428Q656 1466 597 1467T462 1387Z" />
<glyph unicode="&#xe4;" glyph-name="adieresis" horiz-adv-x="1215" d="M717 106Q591 -20 413 -20Q235 -20 142 104Q60 216 60 402Q60 713 234 928Q352 1076 538 1134Q633 1163 746 1163T984 1120L1136 1163L1007 227Q998 151 1046 151Q1080 151 1139 197L1167
124Q1114 42 994 -2Q946 -20 880 -20T766 12T717 106ZM680 209L790 1017Q757 1023 709 1023T614 997T532 925T473 819T434 690Q406 563 406 426T445 222T551 154T680 209ZM1072 1354Q1038 1338 999 1338T934 1352T888 1390Q823 1468 860 1582Q883 1654 948 1686Q981
1701 1020 1701T1087 1687Q1173 1644 1173 1545Q1173 1401 1072 1354ZM620 1354Q586 1338 547 1338T482 1352Q428 1382 405 1444Q395 1472 395 1487T395 1524T407 1581T442 1644Q490 1701 571 1701Q639 1701 682 1650Q721 1606 721 1545Q721 1401 620 1354Z" />
<glyph unicode="&#xe5;" glyph-name="aring" horiz-adv-x="1215" d="M717 106Q591 -20 413 -20Q235 -20 142 104Q60 216 60 402Q60 713 234 928Q352 1076 538 1134Q633 1163 746 1163T984 1120L1136 1163L1007 227Q998 151 1046 151Q1080 151 1139 197L1167 124Q1114
42 994 -2Q946 -20 880 -20T766 12T717 106ZM680 209L790 1017Q757 1023 709 1023T614 997T532 925T473 819T434 690Q406 563 406 426T445 222T551 154T680 209ZM766 1253Q697 1253 640 1269T542 1316Q459 1380 459 1497Q459 1703 676 1776Q758 1804 834 1804T966
1788T1062 1742Q1148 1677 1148 1567Q1148 1418 1026 1330Q919 1253 766 1253ZM874 1664T833 1664T762 1657T708 1632Q653 1595 653 1520Q653 1468 696 1432Q738 1396 779 1396Q860 1396 907 1428T955 1525T915 1627Z" />
<glyph unicode="&#xe6;" glyph-name="ae" horiz-adv-x="1710" d="M1269 159Q1447 159 1567 315L1631 212Q1538 67 1335 4Q1257 -20 1166 -20T1008 0T892 57Q799 126 760 246Q643 70 494 5Q437 -20 358 -20T219 15T122 108Q60 209 60 392Q60 699 258 923Q391 1074
593 1133Q696 1163 799 1163T1018 1133L1107 1163L1099 1100Q1225 1163 1372 1163Q1612 1163 1679 1012Q1701 961 1701 893T1675 762T1601 649T1490 563T1356 503Q1218 457 1082 455Q1082 299 1132 229T1269 159ZM1298 1025Q1111 1025 1082 575Q1188 582 1278 659Q1380
747 1380 886T1298 1025ZM433 224T450 202T493 180T547 193T600 228Q646 267 697 336L801 1023Q674 1021 578 922Q453 792 416 550Q406 479 406 427T410 333T423 258Z" />
<glyph unicode="&#xe7;" glyph-name="ccedilla" horiz-adv-x="944" d="M155 -303Q185 -319 228 -319T303 -311T360 -284Q417 -242 417 -120Q417 -73 409 -18Q162 0 87 256Q61 344 61 444T77 625T127 785T215 934T342 1054Q499 1163 707 1163Q868 1163 963 1125L870
803Q849 809 815 848L759 911Q675 1006 635 1006T552 966Q460 880 420 682Q402 594 402 535T403 428T415 326T448 236Q489 169 577 169Q733 169 831 297L895 194Q830 90 690 30Q639 7 578 -6Q616 -110 616 -238Q616 -484 318 -484Q236 -484 182 -473T120 -456L155
-303Z" />
<glyph unicode="&#xe8;" glyph-name="egrave" horiz-adv-x="1048" d="M607 159Q785 159 905 315L969 212Q876 67 673 4Q595 -20 507 -20T356 -3T243 46T160 119T104 212Q61 310 61 430Q61 433 61 436Q61 749 248 956Q433 1163 710 1163Q950 1163 1017 1012Q1039
961 1039 893T1013 762T939 649T828 563T694 503Q556 457 420 455Q420 299 470 229T607 159ZM636 1025Q449 1025 420 575Q526 582 616 659Q718 747 718 886T636 1025ZM649 1241Q538 1288 373 1440Q293 1513 263 1566L466 1743L754 1311L649 1241Z" />
<glyph unicode="&#xe9;" glyph-name="eacute" horiz-adv-x="1048" d="M607 159Q785 159 905 315L969 212Q876 67 673 4Q595 -20 507 -20T356 -3T243 46T160 119T104 212Q61 310 61 430Q61 433 61 436Q61 749 248 956Q433 1163 710 1163Q950 1163 1017 1012Q1039
961 1039 893T1013 762T939 649T828 563T694 503Q556 457 420 455Q420 299 470 229T607 159ZM636 1025Q449 1025 420 575Q526 582 616 659Q718 747 718 886T636 1025ZM591 1312L908 1743L1100 1556Q1071 1500 928 1385Q774 1260 694 1231L591 1312Z" />
<glyph unicode="&#xea;" glyph-name="ecircumflex" horiz-adv-x="1048" d="M607 159Q785 159 905 315L969 212Q876 67 673 4Q595 -20 507 -20T356 -3T243 46T160 119T104 212Q61 310 61 430Q61 433 61 436Q61 749 248 956Q433 1163 710 1163Q950 1163 1017 1012Q1039
961 1039 893T1013 762T939 649T828 563T694 503Q556 457 420 455Q420 299 470 229T607 159ZM636 1025Q449 1025 420 575Q526 582 616 659Q718 747 718 886T636 1025ZM336 1296L703 1670H881L1091 1296L967 1238L766 1432L443 1239L336 1296Z" />
<glyph unicode="&#xeb;" glyph-name="edieresis" horiz-adv-x="1048" d="M607 159Q785 159 905 315L969 212Q876 67 673 4Q595 -20 507 -20T356 -3T243 46T160 119T104 212Q61 310 61 430Q61 433 61 436Q61 749 248 956Q433 1163 710 1163Q950 1163 1017 1012Q1039
961 1039 893T1013 762T939 649T828 563T694 503Q556 457 420 455Q420 299 470 229T607 159ZM636 1025Q449 1025 420 575Q526 582 616 659Q718 747 718 886T636 1025ZM1014 1354Q980 1338 941 1338T876 1352T830 1390Q765 1468 802 1582Q825 1654 890 1686Q923
1701 962 1701T1029 1687Q1115 1644 1115 1545Q1115 1401 1014 1354ZM562 1354Q528 1338 489 1338T424 1352Q370 1382 347 1444Q337 1472 337 1487T337 1524T349 1581T384 1644Q432 1701 513 1701Q581 1701 624 1650Q663 1606 663 1545Q663 1401 562 1354Z" />
<glyph unicode="&#xec;" glyph-name="igrave" horiz-adv-x="669" d="M603 124Q485 -20 307 -20Q200 -20 153 18T106 108Q106 118 111 153T128 275L221 980L57 1031L75 1112L521 1163L576 1139L448 227Q446 212 446 200Q446 151 483 151Q513 151 575 197L603 124ZM616
1241Q505 1288 340 1440Q260 1513 230 1566L433 1743L721 1311L616 1241Z" />
<glyph unicode="&#xed;" glyph-name="iacute" horiz-adv-x="669" d="M603 124Q485 -20 307 -20Q200 -20 153 18T106 108Q106 118 111 153T128 275L221 980L57 1031L75 1112L521 1163L576 1139L448 227Q446 212 446 200Q446 151 483 151Q513 151 575 197L603 124ZM301
1312L618 1743L810 1556Q781 1500 638 1385Q484 1260 404 1231L301 1312Z" />
<glyph unicode="&#xee;" glyph-name="icircumflex" horiz-adv-x="669" d="M603 124Q485 -20 307 -20Q200 -20 153 18T106 108Q106 118 111 153T128 275L221 980L57 1031L75 1112L521 1163L576 1139L448 227Q446 212 446 200Q446 151 483 151Q513 151 575 197L603
124ZM303 1296L670 1670H848L1058 1296L934 1238L733 1432L410 1239L303 1296Z" />
<glyph unicode="&#xef;" glyph-name="idieresis" horiz-adv-x="669" d="M603 124Q485 -20 307 -20Q200 -20 153 18T106 108Q106 118 111 153T128 275L221 980L57 1031L75 1112L521 1163L576 1139L448 227Q446 212 446 200Q446 151 483 151Q513 151 575 197L603
124ZM724 1354Q690 1338 651 1338T586 1352T540 1390Q475 1468 512 1582Q535 1654 600 1686Q633 1701 672 1701T739 1687Q825 1644 825 1545Q825 1401 724 1354ZM272 1354Q238 1338 199 1338T134 1352Q80 1382 57 1444Q47 1472 47 1487T47 1524T59 1581T94 1644Q142
1701 223 1701Q291 1701 334 1650Q373 1606 373 1545Q373 1401 272 1354Z" />
<glyph unicode="&#xf0;" glyph-name="eth" horiz-adv-x="1157" d="M406 1794Q551 1753 699 1653L796 1770Q821 1800 843 1829L956 1728L812 1561Q1044 1337 1104 1004Q1123 902 1123 763T1080 473T954 212Q778 -20 480 -20Q271 -20 151 137Q44 277 44 445T86 733T202
938Q355 1110 600 1110Q732 1110 780 1081Q780 1085 780 1099T774 1148T753 1224Q720 1315 660 1398L527 1245L411 1343L557 1504Q436 1608 351 1635L406 1794ZM381 400Q381 107 509 107Q606 107 677 238Q744 361 768 580Q771 602 774 630Q784 707 784 730T783
774T775 822T757 876T726 926Q682 974 626 974T537 948T479 877T435 775T404 652Q381 531 381 400Z" />
<glyph unicode="&#xf1;" glyph-name="ntilde" horiz-adv-x="1308" d="M1121 151Q1150 151 1211 197L1239 124Q1177 39 1059 -2Q1006 -21 939 -21T831 -5T770 36Q736 75 736 150Q736 191 747 253L797 532Q827 701 827 759T827 841T821 893T807 936Q789 965 754
965T686 946T621 892Q555 825 506 721L407 0H83L214 962L107 1022L123 1111L497 1163L549 1139L533 929Q681 1163 908 1163Q1173 1163 1173 861Q1173 806 1152 677L1124 505Q1118 467 1111 426T1097 345Q1082 256 1082 204T1121 151ZM458 1387L381 1511Q412 1576
487 1627Q564 1680 620 1680T705 1669T757 1641T799 1605Q799 1605 835 1569Q876 1530 910 1530T966 1539T1006 1562Q1032 1582 1069 1630L1157 1499Q1130 1431 1058 1376Q982 1318 922 1318T831 1329T776 1356T735 1392T697 1428Q652 1466 593 1467T458 1387Z"
/>
<glyph unicode="&#xf2;" glyph-name="ograve" horiz-adv-x="1197" d="M317 11Q61 109 61 468Q61 752 222 948Q332 1084 502 1136Q588 1163 690 1163T874 1132T1012 1042Q1131 916 1131 674Q1131 390 970 194Q858 59 688 6Q603 -20 501 -20T317 11ZM491 126Q515
107 555 107T629 133T688 204T731 309Q773 456 773 659Q773 953 702 1008Q680 1025 643 1025T571 999T509 929T464 825Q417 672 417 478Q417 182 491 126ZM646 1241Q535 1288 370 1440Q290 1513 260 1566L463 1743L751 1311L646 1241Z" />
<glyph unicode="&#xf3;" glyph-name="oacute" horiz-adv-x="1197" d="M317 11Q61 109 61 468Q61 752 222 948Q332 1084 502 1136Q588 1163 690 1163T874 1132T1012 1042Q1131 916 1131 674Q1131 390 970 194Q858 59 688 6Q603 -20 501 -20T317 11ZM491 126Q515
107 555 107T629 133T688 204T731 309Q773 456 773 659Q773 953 702 1008Q680 1025 643 1025T571 999T509 929T464 825Q417 672 417 478Q417 182 491 126ZM588 1312L905 1743L1097 1556Q1068 1500 925 1385Q771 1260 691 1231L588 1312Z" />
<glyph unicode="&#xf4;" glyph-name="ocircumflex" horiz-adv-x="1197" d="M317 11Q61 109 61 468Q61 752 222 948Q332 1084 502 1136Q588 1163 690 1163T874 1132T1012 1042Q1131 916 1131 674Q1131 390 970 194Q858 59 688 6Q603 -20 501 -20T317 11ZM491 126Q515
107 555 107T629 133T688 204T731 309Q773 456 773 659Q773 953 702 1008Q680 1025 643 1025T571 999T509 929T464 825Q417 672 417 478Q417 182 491 126ZM333 1296L700 1670H878L1088 1296L964 1238L763 1432L440 1239L333 1296Z" />
<glyph unicode="&#xf5;" glyph-name="otilde" horiz-adv-x="1197" d="M317 11Q61 109 61 468Q61 752 222 948Q332 1084 502 1136Q588 1163 690 1163T874 1132T1012 1042Q1131 916 1131 674Q1131 390 970 194Q858 59 688 6Q603 -20 501 -20T317 11ZM491 126Q515
107 555 107T629 133T688 204T731 309Q773 456 773 659Q773 953 702 1008Q680 1025 643 1025T571 999T509 929T464 825Q417 672 417 478Q417 182 491 126ZM401 1387L324 1511Q355 1576 430 1627Q507 1680 563 1680T648 1669T700 1641T742 1605Q742 1605 778 1569Q819
1530 853 1530T909 1539T949 1562Q975 1582 1012 1630L1100 1499Q1073 1431 1001 1376Q925 1318 865 1318T774 1329T719 1356T678 1392T640 1428Q595 1466 536 1467T401 1387Z" />
<glyph unicode="&#xf6;" glyph-name="odieresis" horiz-adv-x="1197" d="M317 11Q61 109 61 468Q61 752 222 948Q332 1084 502 1136Q588 1163 690 1163T874 1132T1012 1042Q1131 916 1131 674Q1131 390 970 194Q858 59 688 6Q603 -20 501 -20T317 11ZM491 126Q515
107 555 107T629 133T688 204T731 309Q773 456 773 659Q773 953 702 1008Q680 1025 643 1025T571 999T509 929T464 825Q417 672 417 478Q417 182 491 126ZM1011 1354Q977 1338 938 1338T873 1352T827 1390Q762 1468 799 1582Q822 1654 887 1686Q920 1701 959 1701T1026
1687Q1112 1644 1112 1545Q1112 1401 1011 1354ZM559 1354Q525 1338 486 1338T421 1352Q367 1382 344 1444Q334 1472 334 1487T334 1524T346 1581T381 1644Q429 1701 510 1701Q578 1701 621 1650Q660 1606 660 1545Q660 1401 559 1354Z" />
<glyph unicode="&#xf7;" glyph-name="divide" horiz-adv-x="1370" d="M854 1059T818 1047T750 1035T693 1047T650 1081Q609 1129 609 1186T626 1280T670 1343Q727 1396 800 1396Q871 1396 912 1346Q948 1302 948 1243T930 1147T883 1084ZM262 871H1201L1183 674H244L262
871ZM507 246Q496 275 496 316T513 394T558 457Q614 510 687 510Q758 510 798 460Q835 416 835 357T817 261T770 198Q713 149 633 149Q544 149 507 246Z" />
<glyph unicode="&#xf8;" glyph-name="oslash" horiz-adv-x="1197" d="M490 -18Q376 -18 282 28L168 -132L79 -83L199 85Q62 210 62 470Q62 754 222 950Q333 1086 504 1138Q589 1165 699 1165T902 1122L1031 1303L1120 1254L988 1067Q1132 940 1132 676Q1132 392
971 196Q794 -18 490 -18ZM750 923Q722 1027 652 1027Q490 1027 436 702Q418 597 418 528T418 442T419 416T420 395L750 923ZM438 236Q452 169 479 139T551 109Q634 109 690 206Q774 353 774 661Q774 685 773 709L771 766L438 236Z" />
<glyph unicode="&#xf9;" glyph-name="ugrave" horiz-adv-x="1276" d="M138 114Q109 163 109 216T112 313T122 404T136 501L204 962L78 1042L94 1131L497 1163L549 1139L480 589Q443 326 443 268Q443 148 538 148Q645 148 732 247L856 1155H1182L1054 227Q1044
151 1094 151Q1118 151 1142 167L1186 197L1214 124Q1159 42 1042 -2Q994 -20 934 -20Q827 -20 788 20T748 113Q748 128 751 143L747 146Q681 72 626 41Q520 -20 400 -20Q217 -20 138 114ZM655 1241Q544 1288 379 1440Q299 1513 269 1566L472 1743L760 1311L655
1241Z" />
<glyph unicode="&#xfa;" glyph-name="uacute" horiz-adv-x="1276" d="M138 114Q109 163 109 216T112 313T122 404T136 501L204 962L78 1042L94 1131L497 1163L549 1139L480 589Q443 326 443 268Q443 148 538 148Q645 148 732 247L856 1155H1182L1054 227Q1044
151 1094 151Q1118 151 1142 167L1186 197L1214 124Q1159 42 1042 -2Q994 -20 934 -20Q827 -20 788 20T748 113Q748 128 751 143L747 146Q681 72 626 41Q520 -20 400 -20Q217 -20 138 114ZM597 1312L914 1743L1106 1556Q1077 1500 934 1385Q780 1260 700 1231L597
1312Z" />
<glyph unicode="&#xfb;" glyph-name="ucircumflex" horiz-adv-x="1276" d="M138 114Q109 163 109 216T112 313T122 404T136 501L204 962L78 1042L94 1131L497 1163L549 1139L480 589Q443 326 443 268Q443 148 538 148Q645 148 732 247L856 1155H1182L1054 227Q1044
151 1094 151Q1118 151 1142 167L1186 197L1214 124Q1159 42 1042 -2Q994 -20 934 -20Q827 -20 788 20T748 113Q748 128 751 143L747 146Q681 72 626 41Q520 -20 400 -20Q217 -20 138 114ZM342 1296L709 1670H887L1097 1296L973 1238L772 1432L449 1239L342 1296Z"
/>
<glyph unicode="&#xfc;" glyph-name="udieresis" horiz-adv-x="1276" d="M138 114Q109 163 109 216T112 313T122 404T136 501L204 962L78 1042L94 1131L497 1163L549 1139L480 589Q443 326 443 268Q443 148 538 148Q645 148 732 247L856 1155H1182L1054 227Q1044
151 1094 151Q1118 151 1142 167L1186 197L1214 124Q1159 42 1042 -2Q994 -20 934 -20Q827 -20 788 20T748 113Q748 128 751 143L747 146Q681 72 626 41Q520 -20 400 -20Q217 -20 138 114ZM1020 1354Q986 1338 947 1338T882 1352T836 1390Q771 1468 808 1582Q831
1654 896 1686Q929 1701 968 1701T1035 1687Q1121 1644 1121 1545Q1121 1401 1020 1354ZM568 1354Q534 1338 495 1338T430 1352Q376 1382 353 1444Q343 1472 343 1487T343 1524T355 1581T390 1644Q438 1701 519 1701Q587 1701 630 1650Q669 1606 669 1545Q669 1401
568 1354Z" />
<glyph unicode="&#xfd;" glyph-name="yacute" horiz-adv-x="1084" d="M115 956T106 968T70 981T4 947L-25 1028Q0 1063 50 1096Q153 1163 245 1163Q417 1163 443 1026Q481 828 514 632L578 239L596 80L657 204Q791 478 791 737Q791 812 778 864Q755 962 755 1008T765
1079T795 1123Q837 1163 901 1163T998 1147T1050 1101Q1086 1048 1086 963T1066 795T1014 624Q961 479 890 340L664 -98L622 -172Q604 -205 587 -232L552 -286Q475 -394 412 -437Q292 -518 152 -518Q35 -518 -76 -486Q-103 -479 -116 -473L-65 -258Q-6 -307 120
-338Q164 -349 209 -349T293 -335T370 -287Q439 -226 523 -71H332L122 925Q115 956 106 968ZM488 1312L805 1743L997 1556Q968 1500 825 1385Q671 1260 591 1231L488 1312Z" />
<glyph unicode="&#xfe;" glyph-name="thorn" horiz-adv-x="1191" d="M449 -20Q414 -20 363 -13L350 -142L303 -520H-11L60 -20L247 1484L144 1527L165 1611L526 1650L580 1623L506 1059Q630 1163 787 1163Q1043 1163 1110 914Q1131 833 1131 703T1084 436T948
198Q759 -20 449 -20ZM385 128Q421 119 491 119T621 171T718 310Q790 474 790 729Q790 906 710 967Q683 988 640 988Q560 988 485 899L385 128Z" />
<glyph unicode="&#xff;" glyph-name="ydieresis" horiz-adv-x="1084" d="M115 956T106 968T70 981T4 947L-25 1028Q0 1063 50 1096Q153 1163 245 1163Q417 1163 443 1026Q481 828 514 632L578 239L596 80L657 204Q791 478 791 737Q791 812 778 864Q755 962 755
1008T765 1079T795 1123Q837 1163 901 1163T998 1147T1050 1101Q1086 1048 1086 963T1066 795T1014 624Q961 479 890 340L664 -98L622 -172Q604 -205 587 -232L552 -286Q475 -394 412 -437Q292 -518 152 -518Q35 -518 -76 -486Q-103 -479 -116 -473L-65 -258Q-6
-307 120 -338Q164 -349 209 -349T293 -335T370 -287Q439 -226 523 -71H332L122 925Q115 956 106 968ZM911 1354Q877 1338 838 1338T773 1352T727 1390Q662 1468 699 1582Q722 1654 787 1686Q820 1701 859 1701T926 1687Q1012 1644 1012 1545Q1012 1401 911 1354ZM459
1354Q425 1338 386 1338T321 1352Q267 1382 244 1444Q234 1472 234 1487T234 1524T246 1581T281 1644Q329 1701 410 1701Q478 1701 521 1650Q560 1606 560 1545Q560 1401 459 1354Z" />
<glyph unicode="&#x2013;" glyph-name="endash" horiz-adv-x="1548" d="M288 871H1385L1345 674H248L288 871Z" />
<glyph unicode="&#x2014;" glyph-name="emdash" horiz-adv-x="2036" d="M282 871H1873L1838 674H248L282 871Z" />
<glyph unicode="&#x2018;" glyph-name="quoteleft" horiz-adv-x="702" d="M375 917Q232 954 194 1122Q182 1173 182 1234T199 1355T246 1466T315 1561T399 1640Q481 1704 583 1747L649 1641L647 1619Q568 1593 507 1498Q446 1404 446 1319Q446 1158 546 1148L541
1107L375 917Z" />
<glyph unicode="&#x2019;" glyph-name="quoteright" horiz-adv-x="702" d="M480 1740Q623 1703 661 1535Q673 1484 673 1423T656 1302T609 1191T540 1096T456 1017Q374 953 272 910L206 1016L208 1038Q287 1064 348 1159Q409 1253 409 1338Q409 1499 309 1509L314
1550L480 1740Z" />
<glyph unicode="&#x201a;" glyph-name="quotesinglbase" horiz-adv-x="682" d="M323 301Q466 264 504 96Q516 45 516 -16T499 -137T452 -248T383 -343T299 -422Q217 -486 115 -529L49 -423L51 -401Q130 -375 191 -280Q252 -186 252 -101Q252 60 152 70L157 111L323 301Z" />
<glyph unicode="&#x201c;" glyph-name="quotedblleft" horiz-adv-x="1181" d="M877 917Q734 954 696 1122Q684 1173 684 1234T701 1355T748 1466T817 1561T901 1640Q983 1704 1085 1747L1151 1641L1149 1619Q1070 1593 1009 1498Q948 1404 948 1319Q948 1158 1048
1148L1043 1107L877 917ZM378 917Q235 954 197 1122Q185 1173 185 1234T202 1355T249 1466T318 1561T402 1640Q484 1704 586 1747L652 1641L650 1619Q571 1593 510 1498Q449 1404 449 1319Q449 1158 549 1148L544 1107L378 917Z" />
<glyph unicode="&#x201d;" glyph-name="quotedblright" horiz-adv-x="1181" d="M996 1740Q1139 1703 1177 1535Q1189 1484 1189 1423T1172 1302T1125 1191T1056 1096T972 1017Q890 953 788 910L722 1016L724 1038Q803 1064 864 1159Q925 1253 925 1338Q925 1499
825 1509L830 1550L996 1740ZM497 1740Q640 1703 678 1535Q690 1484 690 1423T673 1302T626 1191T557 1096T473 1017Q391 953 289 910L223 1016L225 1038Q304 1064 365 1159Q426 1253 426 1338Q426 1499 326 1509L331 1550L497 1740Z" />
<glyph unicode="&#x201e;" glyph-name="quotedblbase" horiz-adv-x="1181" d="M306 301Q449 264 487 96Q499 45 499 -16T482 -137T435 -248T366 -343T282 -422Q200 -486 98 -529L32 -423L34 -401Q113 -375 174 -280Q235 -186 235 -101Q235 60 135 70L140 111L306
301ZM785 301Q928 264 966 96Q978 45 978 -16T961 -137T914 -248T845 -343T761 -422Q679 -486 577 -529L511 -423L513 -401Q592 -375 653 -280Q714 -186 714 -101Q714 60 614 70L619 111L785 301Z" />
<glyph unicode="&#x2022;" glyph-name="bullet" horiz-adv-x="858" d="M588 510T531 482T409 454T304 473T230 524Q162 592 162 683Q162 804 240 894Q326 992 465 992Q560 992 627 927T695 768Q695 642 624 555Q588 510 531 482Z" />
<glyph unicode="&#x2039;" glyph-name="guilsinglleft" horiz-adv-x="1190" d="M234 690L966 1096L1024 921L564 605L938 294L838 142L212 530L234 690Z" />
<glyph unicode="&#x203a;" glyph-name="guilsinglright" horiz-adv-x="1190" d="M887 548L155 142L97 317L557 633L183 944L283 1096L909 708L887 548Z" />
</font>
</defs>
</svg>
