<?xml version="1.0" standalone="no"?>
<!DOCTYPE svg PUBLIC "-//W3C//DTD SVG 1.1//EN" "http://www.w3.org/Graphics/SVG/1.1/DTD/svg11.dtd">
<svg xmlns="http://www.w3.org/2000/svg">
<defs >
<font id="Merriweather" horiz-adv-x="1350" ><font-face
    font-family="Merriweather"
    units-per-em="2048"
    panose-1="2 6 5 3 5 4 6 3 7 4"
    ascent="1920"
    descent="-640"
    alphabetic="0" />
<glyph unicode=" " glyph-name="space" horiz-adv-x="560" />
<glyph unicode="!" glyph-name="exclam" horiz-adv-x="813" d="M167 1780H646L493 568H311L167 1780ZM179 154Q179 202 201 243T257 315T334 363T417 381Q470 381 509 366T573 324T611 263T624 187Q624 136 603 96T548 27T470 -17T382 -32Q344 -32 308 -20T243
16T197 74T179 154Z" />
<glyph unicode="&quot;" glyph-name="quotedbl" horiz-adv-x="1261" d="M722 1782H1087L1002 956H807L722 1782ZM174 1782H539L454 956H259L174 1782Z" />
<glyph unicode="#" glyph-name="numbersign" horiz-adv-x="1489" d="M330 345H113V564H349L374 829H139V1045H388L426 1355H672L645 1045H888L916 1355H1177L1151 1045H1376V829H1127L1103 564H1338Q1338 509 1338 455T1339 345H1083L1052 0H797L824 345H590L556
0H300L330 345ZM843 564L866 829H633L609 564H843Z" />
<glyph unicode="$" glyph-name="dollar" horiz-adv-x="1366" d="M127 469H277L370 228Q397 193 429 173T498 142T574 129T652 126Q691 126 733 136T809 172T866 240T889 348Q889 399 858 441T776 521T660 594T525 667Q450 707 378 753T248 855T156 982T121 1141Q121
1236 160 1311T265 1439T416 1524T595 1564L600 1771H814L809 1560Q870 1555 925 1547T1024 1530T1099 1512T1142 1495V1164H978L884 1374Q879 1380 861 1388T815 1403T756 1416T693 1421Q653 1421 612 1413T537 1387T482 1337T459 1257Q459 1201 482 1155T546
1070T639 997T751 930Q807 899 865 868T979 803T1082 730T1167 645T1224 543T1245 421Q1245 331 1209 254T1106 117T940 20T718 -25L709 -241H485L494 -20Q439 -15 386 -7T284 12T196 36T127 64V469Z" />
<glyph unicode="%" glyph-name="percent" horiz-adv-x="2137" d="M1284 1770H1524L800 -177H562L1284 1770ZM483 692Q396 692 327 720T210 798T135 914T109 1053Q109 1143 142 1212T232 1329T363 1402T517 1427Q615 1427 686 1399T802 1321T869 1205T891 1062Q891
973 858 904T768 788T637 717T483 692ZM511 835Q570 835 604 894T638 1055Q638 1106 626 1148T595 1221T551 1267T501 1284Q471 1284 446 1269T401 1224T372 1154T361 1061Q361 1015 375 974T410 902T458 853T511 835ZM1223 525Q1223 615 1256 684T1346 801T1477
874T1631 899Q1729 899 1800 871T1916 793T1983 677T2005 534Q2005 445 1972 376T1882 260T1751 189T1597 164Q1510 164 1441 193T1324 271T1249 386T1223 525ZM1481 533Q1481 487 1495 446T1530 374T1578 325T1631 307Q1690 307 1724 366T1758 527Q1758 578 1746
620T1715 693T1671 739T1621 756Q1591 756 1566 741T1521 696T1492 626T1481 533Z" />
<glyph unicode="&amp;" glyph-name="ampersand" horiz-adv-x="1592" d="M82 386Q82 464 109 522T183 624T291 701T420 761Q386 805 354 850T296 944T255 1045T242 1155Q245 1255 288 1330T400 1454T551 1527T717 1552Q811 1552 893 1528T1037 1460T1133 1353T1168
1212Q1168 1144 1143 1079T1071 957T959 850T812 765Q848 718 892 665T981 560T1068 460T1144 379L1155 366Q1161 401 1161 437T1162 507Q1162 603 1149 659T1124 738H1437Q1441 735 1447 726T1460 697T1470 644T1475 562Q1475 475 1439 382T1336 214Q1434 153
1520 153V13Q1483 -7 1424 -14T1300 -16Q1274 -14 1248 -11T1196 -1T1141 16T1081 42Q1015 10 932 -9T736 -28Q577 -28 455 -1T250 80T125 210T82 386ZM720 889Q763 918 790 953T833 1030T853 1122T859 1229Q859 1261 851 1294T826 1354T780 1398T711 1415Q688
1415 665 1408T621 1384T585 1338T562 1264Q552 1201 566 1145T607 1042T664 956T720 889ZM427 438Q427 350 455 292T531 199T637 150T759 135Q807 135 848 137T925 147Q879 188 828 244T724 362T621 490T527 614Q487 582 457 536T427 438Z" />
<glyph unicode="&apos;" glyph-name="quotesingle" horiz-adv-x="713" d="M174 1782H539L454 956H259L174 1782Z" />
<glyph unicode="(" glyph-name="parenleft" horiz-adv-x="1011" d="M160 712Q160 877 192 1016T276 1269T390 1471T511 1622T620 1722T694 1773L837 1661Q816 1647 784 1618T716 1541T642 1423T573 1259T520 1043T494 768Q490 623 508 498T559 266T634 75T719
-73T801 -178T866 -237L715 -352Q690 -338 640 -307T527 -220T400 -83T282 112T194 374T160 712Z" />
<glyph unicode=")" glyph-name="parenright" horiz-adv-x="1011" d="M174 -250Q194 -236 226 -207T295 -130T369 -12T438 152T491 368T517 643Q521 788 503 913T452 1145T377 1336T292 1484T210 1589T145 1648L296 1763Q321 1749 371 1718T484 1631T611 1494T729
1299T817 1037T851 699Q851 534 819 395T735 142T621 -60T500 -211T391 -311T317 -362L174 -250Z" />
<glyph unicode="*" glyph-name="asterisk" horiz-adv-x="1240" d="M493 1068L553 1193L463 1081L224 881L73 1084L383 1252L511 1274L386 1290L70 1434L220 1660L463 1460L553 1357L493 1490L472 1799L750 1798L729 1490L658 1357L753 1473L996 1657L1170 1432L827
1292L699 1274L828 1250L1165 1082L991 884L753 1081L661 1193L721 1068L750 755H472L493 1068Z" />
<glyph unicode="+" glyph-name="plus" horiz-adv-x="1320" d="M529 534L539 722L384 712H173V968H384L539 958L529 1146V1358H791V1146L781 958L936 968H1147V712H936L781 722L791 534V342H529V534Z" />
<glyph unicode="," glyph-name="comma" horiz-adv-x="797" d="M181 66L385 324Q455 299 505 255T587 157T633 42T647 -78Q645 -188 609 -274T516 -424T392 -531T257 -596L180 -527V-472Q206 -460 236 -439T292 -385T335 -307T352 -203Q352 -169 338 -136T301 -78T247
-35T181 -15V66Z" />
<glyph unicode="-" glyph-name="hyphen" horiz-adv-x="1320" d="M183 958H1137V722H183V958Z" />
<glyph unicode="." glyph-name="period" horiz-adv-x="803" d="M179 157Q179 205 201 246T257 318T334 366T417 384Q470 384 509 369T573 327T611 266T624 190Q624 139 603 99T548 30T470 -14T382 -29Q344 -29 308 -17T243 19T197 77T179 157Z" />
<glyph unicode="/" glyph-name="slash" horiz-adv-x="827" d="M544 1599H797L282 -363H30L544 1599Z" />
<glyph unicode="0" glyph-name="zero" horiz-adv-x="1404" d="M104 632Q106 729 131 812T199 964T300 1086T427 1176T570 1232T721 1252Q876 1253 986 1205T1166 1071T1269 871T1300 623Q1299 527 1276 442T1212 285T1115 156T992 59T850 -2T695 -24Q543 -24 431
30T246 175T138 385T104 632ZM716 128Q774 126 812 155T872 244T902 396T911 611Q911 721 896 810T851 964T779 1063T684 1100Q626 1101 589 1071T530 983T500 841T492 651Q492 592 498 531T518 412T551 303T595 214T650 152T716 128Z" />
<glyph unicode="1" glyph-name="one" horiz-adv-x="995" d="M113 146L374 187V912L97 880L61 1042Q93 1051 140 1068T241 1107T348 1153T448 1200T529 1240T576 1268L720 1249L715 186L952 146V0H113V146Z" />
<glyph unicode="2" glyph-name="two" horiz-adv-x="1262" d="M89 130Q166 176 243 230T390 343T522 465T629 589T699 712T725 829Q725 868 712 907T673 978T607 1029T511 1049Q450 1049 400 1035T307 1000T229 954T165 905L79 1034Q97 1060 143 1099T259 1174T421
1237T622 1263Q734 1263 821 1234T969 1155T1061 1042T1093 910Q1093 841 1075 780T1021 662T932 550T806 436T643 315T443 180L969 251L1061 369L1206 325L1137 0H139L89 130Z" />
<glyph unicode="3" glyph-name="three" horiz-adv-x="1115" d="M113 -134Q229 -163 334 -152T519 -98T646 19T693 190Q693 208 691 233T682 287T659 343T617 396T549 438T450 463L235 418V602Q262 604 300 613T379 638T460 680T532 739T584 816T604 915Q604 957
589 986T549 1035T496 1062T438 1071Q378 1071 331 1061T247 1035T182 1003T130 970L44 1097Q58 1112 96 1140T196 1197T339 1247T521 1269Q596 1269 670 1251T803 1193T900 1089T937 932Q937 874 911 816T842 708T744 619T630 563Q718 562 792 536T921 462T1006
348T1037 200Q1037 121 1008 46T923 -96T787 -213T604 -295T378 -332T114 -311Q114 -264 114 -223T113 -134Z" />
<glyph unicode="4" glyph-name="four" horiz-adv-x="1308" d="M75 130Q120 205 174 294T285 480T400 681T514 886T618 1086T708 1274H807L1037 1120L426 250L355 164L802 211L818 589L1094 622V241L1274 260V0H1094V-376H779L794 0H124L75 130Z" />
<glyph unicode="5" glyph-name="five" horiz-adv-x="1139" d="M108 -182Q218 -191 322 -174T508 -108T639 23T689 227Q689 298 668 360T598 464T466 517T260 501L129 541L191 1237H857L885 1274H1014L930 973H421L357 673Q471 707 567 708T740 686T875 620T973
520T1032 399T1052 268Q1052 165 1019 79T927 -76T789 -196T619 -282T429 -334T231 -351Q205 -351 170 -348T108 -337V-182Z" />
<glyph unicode="6" glyph-name="six" horiz-adv-x="1348" d="M114 550Q114 686 152 807T255 1034T410 1225T600 1378T811 1488T1029 1551L1107 1403Q1033 1384 957 1346T809 1253T674 1129T564 980T490 809T463 622Q463 577 465 522T474 412T496 304T537 212T602
147T698 122Q732 122 770 138T839 194T891 302T912 474Q912 521 898 570T855 661T785 728T691 755Q618 755 565 727L518 822Q530 842 557 867T625 915T719 953T836 968Q938 968 1015 935T1143 842T1221 704T1248 531Q1248 413 1208 312T1092 136T908 19T662 -24Q534
-24 432 22T260 146T152 329T114 550Z" />
<glyph unicode="7" glyph-name="seven" horiz-adv-x="1232" d="M263 -215Q343 -68 422 84T580 398T738 730T899 1085L403 1059L328 829L118 833L155 1253H1119L1177 1190L606 -336L263 -215Z" />
<glyph unicode="8" glyph-name="eight" horiz-adv-x="1297" d="M99 373Q99 427 118 487T177 603T279 706T427 782Q374 821 327 863T245 953T189 1056T168 1174Q168 1274 211 1347T324 1470T482 1543T660 1567Q754 1567 840 1546T992 1479T1097 1366T1137 1203Q1137
1150 1114 1095T1052 991T967 904T873 846Q938 802 998 755T1106 655T1181 543T1209 416Q1209 338 1187 275T1127 162T1036 78T924 21T797 -13T666 -24Q560 -24 459 -3T277 65T148 188T99 373ZM743 932Q801 974 828 1038T855 1182Q855 1237 838 1281T791 1358T723
1407T643 1425Q614 1425 582 1415T524 1384T480 1331T462 1253Q462 1208 484 1167T545 1086T635 1008T743 932ZM409 456Q409 382 430 321T489 215T576 147T682 122Q718 122 754 132T819 168T867 236T886 340Q886 393 858 439T784 528T677 612T553 695Q523 672 497
646T452 590T421 527T409 456Z" />
<glyph unicode="9" glyph-name="nine" horiz-adv-x="1331" d="M281 -261Q355 -242 428 -197T567 -88T689 56T786 227T851 414T875 608Q875 653 873 708T864 818T842 926T801 1018T736 1083T640 1108Q606 1108 568 1092T499 1036T447 928T426 756Q426 709 440 660T483
569T553 502T647 475Q720 475 773 503L820 408Q807 385 783 359T720 312T628 276T502 262Q400 262 323 295T195 388T117 526T90 699Q90 817 130 918T246 1094T430 1211T676 1254Q804 1254 906 1208T1078 1084T1186 901T1224 680Q1224 544 1190 416T1096 174T953
-39T774 -213T572 -339T359 -409L281 -261Z" />
<glyph unicode=":" glyph-name="colon" horiz-adv-x="803" d="M382 702Q344 702 308 714T243 750T197 808T179 888Q179 936 201 977T257 1049T334 1097T417 1115Q470 1115 509 1100T573 1058T611 997T624 921Q624 870 603 830T548 761T470 717T382 702ZM179 150Q179
198 201 239T257 311T334 359T417 377Q470 377 509 362T573 320T611 259T624 183Q624 132 603 92T548 23T470 -21T382 -36Q344 -36 308 -24T243 12T197 70T179 150Z" />
<glyph unicode=";" glyph-name="semicolon" horiz-adv-x="828" d="M383 702Q345 702 309 714T244 750T198 808T180 888Q180 936 202 977T258 1049T335 1097T418 1115Q471 1115 510 1100T574 1058T612 997T625 921Q625 870 604 830T549 761T471 717T383 702ZM212
66L416 324Q486 299 536 255T618 157T664 42T678 -78Q676 -188 640 -274T547 -424T423 -531T288 -596L211 -527V-472Q237 -460 267 -439T323 -385T366 -307T383 -203Q383 -169 369 -136T332 -78T278 -35T212 -15V66Z" />
<glyph unicode="&lt;" glyph-name="less" horiz-adv-x="1335" d="M183 837L1152 1340V1047L557 767L1152 521V217L183 703V837Z" />
<glyph unicode="=" glyph-name="equal" horiz-adv-x="1320" d="M183 1210H1137V979H183V1210ZM183 662H1137V430H183V662Z" />
<glyph unicode="&gt;" glyph-name="greater" horiz-adv-x="1335" d="M183 493L778 772L183 1019V1323L1152 837V703L183 200V493Z" />
<glyph unicode="?" glyph-name="question" horiz-adv-x="1063" d="M363 543Q318 586 287 629T235 712T206 789T196 853Q196 892 218 923T278 978T364 1022T463 1058T563 1088T652 1116T719 1144T751 1177Q747 1254 722 1313T657 1415T571 1488T475 1535T384 1561T311
1571Q218 1575 164 1567T83 1538L68 1810Q75 1820 101 1830T163 1847T240 1858T318 1861Q440 1856 534 1828T698 1755T817 1653T894 1534T937 1408T952 1285T944 1176T918 1092Q909 1077 883 1062T819 1030T740 995T657 958T581 916T526 870Q514 856 514 831T521
773T540 705T566 638T592 581T613 543H363ZM335 154Q335 202 357 243T413 315T490 363T573 381Q626 381 665 366T729 324T767 263T780 187Q780 136 759 96T704 27T626 -17T538 -32Q500 -32 464 -20T399 16T353 74T335 154Z" />
<glyph unicode="@" glyph-name="at" horiz-adv-x="2282" d="M140 381Q140 549 189 694T324 960T523 1173T765 1331T1029 1428T1294 1462Q1455 1462 1581 1436T1803 1365T1966 1257T2076 1124T2137 974T2156 818Q2156 707 2132 608T2066 423T1965 269T1836 151T1688
72T1528 37Q1472 34 1437 48T1383 91T1356 159T1349 246Q1349 263 1353 305T1363 398Q1334 332 1294 267T1204 149T1098 62T976 25Q917 22 857 47T748 119T668 234T637 385Q637 485 657 572T713 732T796 864T897 964T1008 1030T1119 1058Q1165 1061 1201 1059T1270
1050T1333 1033T1396 1009Q1407 1035 1422 1051T1458 1062Q1521 1046 1577 1026T1696 988Q1678 875 1656 755T1620 492Q1613 414 1613 361T1617 276T1626 229T1637 215Q1662 215 1691 237T1750 297T1806 385T1853 492T1886 610T1898 730Q1898 842 1872 928T1800
1077T1689 1184T1547 1254T1383 1291T1203 1303Q1121 1303 1032 1278T857 1203T695 1083T560 922T468 724T434 491Q434 354 461 249T538 65T654 -67T800 -154T968 -201T1149 -215Q1202 -215 1264 -207T1384 -187T1489 -161T1557 -134L1622 -262Q1548 -315 1417
-346T1111 -378Q890 -378 711 -327T405 -178T209 61T140 381ZM927 502Q927 454 932 408T949 327T979 269T1025 247Q1040 247 1065 271T1121 336T1184 433T1245 553T1296 686T1329 823Q1318 830 1296 837T1250 849T1201 858T1162 862Q1116 862 1074 842T999 778T947
666T927 502Z" />
<glyph unicode="A" glyph-name="A" horiz-adv-x="1600" d="M5 140L138 180L631 1553H964L1443 178L1595 138V0H911V138L1045 183L1002 335H461L416 187L565 140V0H5V140ZM948 521L815 979L742 1253L518 521H948Z" />
<glyph unicode="B" glyph-name="B" horiz-adv-x="1457" d="M80 140L235 183V1367L84 1389V1553H396Q393 1555 423 1556T504 1559T617 1563T745 1567Q883 1571 988 1547T1163 1474T1269 1355T1305 1197Q1305 1136 1289 1079T1241 975T1159 892T1043 838Q1117 838
1183 809T1300 728T1381 609T1411 464Q1411 348 1374 260T1252 111T1033 20T701 -11Q656 -11 614 -10T527 -6T428 -2T306 0H80V140ZM589 882Q605 877 635 876T719 874Q780 874 821 888T890 927T933 982T954 1047T962 1112T964 1172Q964 1220 953 1264T911 1341T829
1394T697 1414Q686 1414 671 1413T641 1411T613 1406T591 1399L589 882ZM587 164Q612 151 667 144T792 137Q866 137 914 167T989 244T1027 345T1038 448Q1038 500 1027 549T986 638T906 700T778 724Q733 724 685 723T587 712V164Z" />
<glyph unicode="C" glyph-name="C" horiz-adv-x="1475" d="M68 724Q68 853 102 966T196 1172T338 1339T518 1463T725 1540T948 1567Q1024 1567 1087 1560T1202 1542T1295 1521T1372 1503L1352 1114H1142L1069 1319Q1059 1334 1045 1345T1006 1365T945 1377T853
1382Q770 1382 699 1345T576 1235T493 1058T463 816Q463 730 475 647T510 488T568 350T649 241T752 169T876 143Q939 143 982 149T1052 167T1095 192T1117 223L1199 424H1373V67Q1335 65 1292 50T1189 18T1047 -13T851 -28Q659 -28 513 30T268 191T119 430T68 724Z"
/>
<glyph unicode="D" glyph-name="D" horiz-adv-x="1616" d="M90 140L235 180V1368L94 1389V1553H422Q455 1553 495 1555T581 1560T676 1565T773 1567Q978 1567 1125 1512T1367 1359T1506 1123T1551 822Q1551 625 1492 471T1327 210T1072 47T746 -10Q708 -10 665
-9T578 -5T496 -1T428 1Q343 1 259 1T90 0V140ZM593 179Q630 156 690 149T830 149Q905 156 968 202T1077 327T1150 513T1176 748Q1176 1077 1070 1240T749 1407Q727 1407 704 1405T660 1400T622 1391T593 1378V179Z" />
<glyph unicode="E" glyph-name="E" horiz-adv-x="1426" d="M101 140L248 179V1367L106 1389V1553H1241L1272 1211H1067L973 1371L603 1392V873L859 883L913 1032H1094V544H913L859 703L603 709V160L1042 188L1169 386L1377 349L1323 0H101V140Z" />
<glyph unicode="F" glyph-name="F" horiz-adv-x="1323" d="M85 140L235 173V1369L80 1389V1553H1226L1258 1205L1081 1203L1010 1356L590 1379V855L879 867L944 1020H1094V509H928L883 673L591 678V187L912 159V0H85V140Z" />
<glyph unicode="G" glyph-name="G" horiz-adv-x="1585" d="M65 748Q65 941 127 1093T299 1351T561 1511T893 1567Q993 1567 1078 1561T1230 1545T1341 1527T1402 1511L1380 1170H1200L1108 1349Q1104 1355 1087 1365T1040 1385T968 1402T872 1410Q771 1410 693
1366T561 1243T479 1058T451 828Q451 738 460 651T488 487T538 344T612 232T713 158T844 131Q892 131 937 142T1017 171T1076 211T1102 258V515L891 542V708H1509V542L1415 519V54Q1350 62 1277 50T1123 21T956 -12T780 -28Q615 -28 483 32T258 197T115 443T65
748Z" />
<glyph unicode="H" glyph-name="H" horiz-adv-x="1780" d="M65 140L235 182V1366L59 1389V1553H766V1389L593 1367V882H1188V1370L1019 1389V1553H1720V1389L1545 1368V181L1730 138V0H1005V138L1188 180V691H593V182L777 140V0H65V140Z" />
<glyph unicode="I" glyph-name="I" horiz-adv-x="848" d="M55 140L243 181V1365L55 1389V1553H782V1389L604 1364V183L793 140V0H55V140Z" />
<glyph unicode="J" glyph-name="J" horiz-adv-x="787" d="M182 -47Q198 -3 207 44T222 147T230 265T232 406V1367L84 1389V1553H736V1389L593 1366V534Q593 445 590 358T579 194T560 56T533 -41Q507 -101 467 -150T378 -238T274 -306T164 -354T56 -384T-42 -396L-112
-295Q-63 -276 -19 -253T63 -200T131 -133T182 -47Z" />
<glyph unicode="K" glyph-name="K" horiz-adv-x="1535" d="M46 140L235 183V1364L43 1389V1553H767V1389L589 1364V797L1049 1366L890 1389L887 1553H1506V1389L1319 1363L888 889Q921 860 956 817T1028 721T1102 612T1174 498T1244 389T1309 293T1366 219T1415
177L1545 140V0H1122Q1100 0 1077 24T1028 90T978 184T926 296T872 414T816 525T760 619T703 684L589 558V182L790 140V0H46V140Z" />
<glyph unicode="L" glyph-name="L" horiz-adv-x="1293" d="M93 140L235 178V1347L98 1368V1553H776V1368L594 1346V163L954 202L1121 439L1273 383L1204 0H93V140Z" />
<glyph unicode="M" glyph-name="M" horiz-adv-x="2060" d="M62 140L234 182L304 1343L119 1366V1553H798L1039 757L1072 555L1114 757L1340 1553H1966V1366L1779 1344L1883 181L2040 138V0H1377V138L1542 183L1486 949L1482 1355L1448 1217L1093 -18H963L633 972L513
1347L509 1069L479 185L663 140V0H62V140Z" />
<glyph unicode="N" glyph-name="N" horiz-adv-x="1706" d="M78 140L235 185V1346L85 1368V1553H594L1196 505L1284 269V1342L1104 1370V1553H1648V1370L1511 1348V0H1119L574 917L465 1187Q465 936 465 687T466 189L669 140V0H78V140Z" />
<glyph unicode="O" glyph-name="O" horiz-adv-x="1600" d="M66 754Q69 880 99 989T181 1188T303 1349T456 1468T631 1542T818 1567Q981 1567 1115 1509T1343 1346T1487 1100T1534 790Q1530 601 1473 450T1317 192T1085 29T797 -28Q627 -28 490 32T258 197T113
446T66 754ZM810 132Q907 132 971 173T1073 296T1126 501T1142 789Q1142 854 1134 925T1110 1064T1067 1193T1003 1301T918 1374T809 1402Q710 1402 643 1360T535 1235T477 1033T459 755Q459 696 467 627T492 489T538 356T605 242T695 162T810 132Z" />
<glyph unicode="P" glyph-name="P" horiz-adv-x="1368" d="M60 140L235 183V1346L63 1380V1553H421Q458 1553 496 1555T576 1560T664 1565T764 1567Q885 1567 994 1548T1185 1479T1316 1340T1365 1113Q1365 988 1319 893T1191 733T1000 635T763 602Q704 602 661
602T587 604V182L832 140V0H60V140ZM587 783Q602 780 624 778T669 774T715 773T756 772Q808 772 855 790T938 850T994 960T1015 1130Q1015 1201 993 1252T930 1337T837 1386T720 1404Q708 1404 688 1403T648 1401T611 1397T587 1391V783Z" />
<glyph unicode="Q" glyph-name="Q" horiz-adv-x="1600" d="M66 754Q69 880 99 989T181 1188T303 1349T456 1468T631 1542T818 1567Q981 1567 1115 1509T1343 1346T1487 1100T1534 790Q1530 631 1489 499T1375 265T1203 95T985 -4Q1004 -47 1033 -72T1096 -111T1166
-129T1233 -132T1290 -127T1328 -122Q1355 -118 1379 -113T1424 -101T1460 -90T1484 -82V-302Q1466 -319 1440 -335T1377 -363T1293 -383T1188 -391Q1135 -391 1079 -376T971 -321T880 -210T817 -27Q812 -27 807 -27T797 -28Q627 -28 490 32T258 197T113 446T66
754ZM810 132Q907 132 971 173T1073 296T1126 501T1142 789Q1142 854 1134 925T1110 1064T1067 1193T1003 1301T918 1374T809 1402Q710 1402 643 1360T535 1235T477 1033T459 755Q459 696 467 627T492 489T538 356T605 242T695 162T810 132Z" />
<glyph unicode="R" glyph-name="R" horiz-adv-x="1525" d="M61 140L235 183V1356L80 1380V1553H305Q448 1553 565 1560T760 1567Q888 1567 998 1545T1190 1474T1317 1348T1364 1161Q1364 983 1282 867T1026 691Q1067 669 1103 627T1173 533T1236 425T1296 320T1355
232T1415 177L1545 140V0H1122Q1097 0 1074 27T1027 100T979 204T931 322T882 440T829 543T772 617T710 645Q678 644 648 644T589 644V178L780 140V0H61V140ZM589 809Q612 805 638 803T692 801T747 801T798 806Q832 811 871 826T944 876T999 971T1021 1124Q1021
1173 1006 1223T954 1313T858 1378T710 1403Q696 1403 679 1403T644 1402T613 1398T589 1391V809Z" />
<glyph unicode="S" glyph-name="S" horiz-adv-x="1316" d="M137 469H287L380 228Q407 193 439 173T508 142T584 129T662 126Q701 126 743 136T819 172T876 240T899 348Q899 399 868 441T786 521T670 594T535 667Q460 707 388 753T258 855T166 982T131 1141Q131
1244 177 1323T298 1457T469 1539T668 1567Q750 1567 830 1560T976 1541T1089 1518T1152 1495V1164H988L894 1374Q889 1380 871 1388T825 1403T766 1416T703 1421Q663 1421 622 1413T547 1387T492 1337T469 1257Q469 1201 492 1155T556 1070T649 997T761 930Q817
899 875 868T989 803T1092 730T1177 645T1234 543T1255 421Q1255 325 1214 243T1097 101T910 7T660 -28Q590 -28 514 -21T367 -2T236 27T137 64V469Z" />
<glyph unicode="T" glyph-name="T" horiz-adv-x="1456" d="M341 140L571 179V1385L297 1358L228 1143L47 1134L71 1553H1410L1408 1146L1267 1129L1190 1358L925 1385V180L1150 140V0H341V140Z" />
<glyph unicode="U" glyph-name="U" horiz-adv-x="1611" d="M198 1365L40 1389V1553H722V1389L553 1366V610Q553 509 567 436T606 311T664 229T736 180T815 156T897 150Q966 150 1024 174T1126 257T1193 415T1216 666L1213 1363L1045 1389V1553H1584V1389L1440
1363V667Q1440 530 1418 426T1356 244T1261 114T1141 31T1003 -14T853 -28Q517 -28 355 133T194 625L198 1365Z" />
<glyph unicode="V" glyph-name="V" horiz-adv-x="1493" d="M131 1370L13 1389V1553H680V1392L517 1367L733 613L797 344L858 607L1062 1366L908 1389V1552H1480V1389L1359 1370L907 -15H633L131 1370Z" />
<glyph unicode="W" glyph-name="W" horiz-adv-x="2281" d="M139 1369L15 1388V1553H640V1390L521 1369L755 444Q763 401 771 360T789 276L822 444L1012 1210L972 1369L842 1388V1553H1488V1390L1326 1367L1530 444L1566 272L1608 444L1831 1368L1681 1388V1553H2266V1388L2115
1369L1699 -16H1358L1129 791L907 -15H587L139 1369Z" />
<glyph unicode="X" glyph-name="X" horiz-adv-x="1553" d="M24 138L200 182L611 748L185 1365L24 1389V1553H731V1392L585 1369L799 975L1042 1369L906 1389V1553H1529V1389L1337 1367L916 819L1365 184L1530 138V0H827V137L970 177L739 576L505 183L693 138V0H24V138Z" />
<glyph unicode="Y" glyph-name="Y" horiz-adv-x="1480" d="M349 140L589 185V511L123 1370L13 1389V1553H643V1392L537 1372L789 841L818 747L851 850L1064 1364L905 1389Q905 1431 905 1471T904 1553H1467V1389L1335 1352L945 543V188L1214 140V0H349V140Z" />
<glyph unicode="Z" glyph-name="Z" horiz-adv-x="1388" d="M52 139L791 1211L957 1393L383 1346L255 1101L102 1131L145 1553H1295L1341 1400L614 330L469 164L1026 210L1225 477L1374 436L1264 0H93L52 139Z" />
<glyph unicode="[" glyph-name="bracketleft" horiz-adv-x="1118" d="M259 1512Q259 1601 279 1658T339 1747T437 1792T572 1804Q607 1804 646 1797T726 1779T806 1754T882 1727Q882 1696 882 1665T881 1603H573V-29L881 -33L885 -158Q860 -172 821 -185T739 -208T651
-224T573 -230Q496 -230 438 -219T339 -171T279 -68T259 111V1512Z" />
<glyph unicode="\" glyph-name="backslash" horiz-adv-x="827" d="M30 1599H283L797 -363H545L30 1599Z" />
<glyph unicode="]" glyph-name="bracketright" horiz-adv-x="1118" d="M539 -29V1603H231Q231 1634 231 1665T230 1727Q266 1740 305 1754T385 1779T465 1797T540 1804Q616 1804 674 1792T772 1748T832 1658T853 1512V111Q853 -1 833 -68T773 -171T675 -218T539
-230Q504 -230 461 -224T374 -208T291 -185T227 -158L231 -33L539 -29Z" />
<glyph unicode="^" glyph-name="asciicircum" horiz-adv-x="1501" d="M585 1531H926L1318 564Q1238 564 1159 564T999 563L735 1220L459 563Q390 563 321 563T183 564L585 1531Z" />
<glyph unicode="_" glyph-name="underscore" horiz-adv-x="1421" d="M1435 -193V-427H-20V-193H1435Z" />
<glyph unicode="`" glyph-name="grave" horiz-adv-x="884" d="M715 1337Q655 1335 586 1364T452 1440T329 1544T233 1657L488 1852L803 1426L715 1337Z" />
<glyph unicode="a" glyph-name="a" horiz-adv-x="1226" d="M71 394Q85 452 125 498T221 578T344 635T479 674T610 695T724 702Q724 782 710 832T669 910T602 949T511 960Q446 960 391 950T292 925T220 897T180 874L112 1028Q128 1041 169 1062T274 1103T425 1137T618
1151Q719 1151 803 1133T949 1068T1044 942T1078 740V136H1209V29Q1183 11 1151 0T1083 -17T1014 -25T950 -28Q931 -28 901 -24T843 -8T793 27T770 86Q718 37 647 5T480 -28Q349 -28 262 7T125 101T64 236T71 394ZM417 335Q417 238 472 195T633 167Q660 171 682
181T723 206Q723 292 723 377T724 549Q693 549 658 546T589 533T524 508T469 469T431 412T417 335Z" />
<glyph unicode="b" glyph-name="b" horiz-adv-x="1327" d="M149 1384L24 1441V1581L446 1629L503 1612V1088Q552 1115 618 1133T766 1151Q859 1151 946 1122T1102 1028T1212 859T1254 605Q1254 483 1210 369T1083 166T884 25T623 -28Q544 -28 464 -19T318 3T206
30T149 56V1384ZM503 201Q510 188 521 174T552 147T597 126T659 117Q701 117 742 136T816 206T871 344T897 567Q900 674 877 751T814 878T725 952T629 976Q588 976 557 971T503 957V201Z" />
<glyph unicode="c" glyph-name="c" horiz-adv-x="1134" d="M74 525Q73 670 121 784T254 979T451 1102T695 1151Q746 1152 802 1149T908 1139T1000 1122T1064 1099V782H881L802 970Q774 987 738 991T670 995Q619 995 578 970T508 898T461 781T441 624Q437 503 462
417T533 275T639 195T767 169Q812 169 855 175T934 190T1000 213T1048 240L1101 115Q1021 46 901 9T629 -28Q494 -28 391 13T218 129T111 304T74 525Z" />
<glyph unicode="d" glyph-name="d" horiz-adv-x="1383" d="M73 541Q73 675 124 787T264 980T471 1106T724 1151Q747 1151 776 1150T844 1143V1384L623 1441V1581L1133 1630L1198 1603V136H1340V29Q1306 10 1231 -9T1036 -28Q971 -28 931 -10T870 44Q850 30 822
17T754 -6T664 -22T549 -28Q497 -28 442 -14T333 29T233 104T150 213T94 357T73 541ZM637 147Q670 134 707 134Q752 134 786 139T844 153V980Q808 1003 768 1009T693 1015Q677 1015 653 1010T602 989T546 947T496 875T458 767T442 617Q440 516 454 436T494 298T558
201T637 147Z" />
<glyph unicode="e" glyph-name="e" horiz-adv-x="1239" d="M73 531Q73 659 115 772T236 969T429 1102T687 1151Q808 1151 895 1120T1038 1034T1122 901T1153 733Q1155 670 1150 621T1139 530H442Q456 353 533 263T759 173Q832 173 914 188T1078 240L1131 115Q1093
83 1039 56T920 10T785 -19T640 -28Q504 -25 399 13T221 122T111 296T73 531ZM809 691Q812 728 815 770T815 853T797 929T753 985Q735 998 711 1004T655 1011Q597 1011 558 983T495 909T459 806T443 691H809Z" />
<glyph unicode="f" glyph-name="f" horiz-adv-x="946" d="M72 136L234 166V913H51V1018L234 1097V1202Q234 1260 250 1322T296 1444T370 1555T469 1648T590 1711T730 1734Q756 1734 786 1732T845 1726T900 1716T945 1702V1442Q937 1445 914 1454T859 1472T791
1489T721 1497Q688 1497 663 1492T622 1469T597 1412T588 1308V1119H888V913H588V165L828 136V0H72V136Z" />
<glyph unicode="g" glyph-name="g" horiz-adv-x="1276" d="M238 35Q199 50 177 70T144 114T129 166T126 224Q126 248 137 277T168 337T211 396T262 447Q170 491 119 567T68 753Q68 858 115 933T238 1056T410 1126T605 1151Q719 1153 812 1131T971 1057Q981 1077
997 1094T1040 1123T1105 1143T1194 1150H1282V910H1075Q1093 854 1093 786Q1093 684 1055 609T948 485T785 411T578 387Q481 387 402 402Q386 364 386 329Q386 268 423 242T529 216H763Q896 216 988 198T1137 141T1220 39T1246 -111Q1246 -197 1204 -273T1078
-407T870 -497T582 -531Q465 -531 371 -514T209 -461T106 -369T69 -235Q69 -184 84 -142T124 -67T179 -8T238 35ZM602 547Q649 547 680 567T731 619T759 691T767 774Q767 888 721 949T584 1011Q554 1011 524 1002T469 971T429 915T414 830Q414 773 422 722T451
631T508 570T602 547ZM368 -138Q368 -197 389 -240T447 -313T536 -357T649 -372Q715 -372 766 -365T851 -337T904 -282T922 -190Q922 -159 919 -125T895 -64T828 -18T697 0H520Q485 0 455 1T398 4Q385 -20 377 -54T368 -138Z" />
<glyph unicode="h" glyph-name="h" horiz-adv-x="1425" d="M60 136L203 164V1384L68 1441V1581L499 1630L557 1612V1120L536 1017Q582 1059 631 1085T728 1125T822 1145T907 1151Q1015 1151 1081 1115T1183 1010T1230 845T1240 627V163L1376 136V0L741 2V136L886
164V578Q886 655 882 720T860 832T804 905T701 932Q659 932 623 922T557 886V162L655 136V0H60V136Z" />
<glyph unicode="i" glyph-name="i" horiz-adv-x="748" d="M359 1325Q320 1325 283 1338T217 1375T171 1434T153 1513Q153 1561 175 1602T232 1673T310 1720T398 1737Q452 1737 490 1722T554 1681T591 1621T603 1548Q603 1497 583 1456T528 1386T449 1341T359 1325ZM79
136L214 164V786L86 930V1023L482 1151L567 1126V162L711 136V0H79V136Z" />
<glyph unicode="j" glyph-name="j" horiz-adv-x="684" d="M319 1325Q280 1325 243 1338T178 1375T132 1434T114 1513Q114 1561 135 1602T192 1673T270 1720T358 1737Q412 1737 450 1722T514 1681T552 1621T564 1548Q564 1497 543 1456T488 1386T410 1341T319 1325ZM192
786L82 933V1021L465 1151L546 1124V-48Q546 -165 520 -257T445 -412T326 -508T167 -542Q132 -542 97 -538T33 -527T-16 -515T-40 -506V-318Q-31 -321 -15 -323T20 -326T55 -328T81 -329Q119 -329 141 -309T174 -249T189 -148T192 -6V786Z" />
<glyph unicode="k" glyph-name="k" horiz-adv-x="1358" d="M69 136L203 166V1352L42 1423V1565L496 1631L557 1603V711L544 570L870 919L687 940V1119H1325V940L1123 921L881 691L1222 158L1325 138V0H734V138L817 165L649 480L547 363L556 280V162L673 136V0H69V136Z" />
<glyph unicode="l" glyph-name="l" horiz-adv-x="735" d="M70 136L188 161V1384L53 1441V1581L484 1630L542 1612V166L717 136V0H70V136Z" />
<glyph unicode="m" glyph-name="m" horiz-adv-x="2168" d="M98 136L222 161V819L86 915V1041L458 1151L532 1132V984Q563 1017 604 1046T693 1099T793 1136T897 1154Q951 1157 1003 1151T1099 1127T1179 1077T1237 995Q1268 1024 1306 1052T1389 1102T1489 1137T1607
1151Q1706 1151 1777 1119T1893 1026T1960 877T1982 674V163L2122 136V0H1511V136L1628 164V629Q1628 725 1617 783T1580 872T1516 914T1421 924Q1386 924 1346 909T1276 873Q1281 848 1283 811T1286 704V163L1428 136V0H790V136L932 165V636Q932 732 917 790T874
880T803 918T705 922Q693 921 674 917T636 905T601 890T576 872V164L707 136V0H98V136Z" />
<glyph unicode="n" glyph-name="n" horiz-adv-x="1466" d="M97 136L222 161V819L86 915V1041L457 1151L532 1132V984Q571 1022 620 1053T723 1105T836 1139T951 1151Q1047 1151 1110 1121T1210 1032T1263 891T1279 700V162L1420 136V0H782V136L925 164V655Q925
735 918 786T889 867T830 908T728 920Q719 920 699 917T655 907T610 893T576 874V163L699 136V0H97V136Z" />
<glyph unicode="o" glyph-name="o" horiz-adv-x="1335" d="M74 561Q76 715 127 826T263 1009T458 1115T686 1152Q820 1153 926 1118T1107 1013T1222 836T1262 591Q1262 433 1212 318T1079 126T886 13T658 -24Q498 -24 387 22T205 147T104 334T74 561ZM669 122Q739
122 781 163T847 269T878 414T886 574Q886 621 883 671T872 770T849 861T811 936T755 987T677 1006Q631 1006 596 989T536 941T494 871T468 785T454 688T450 589Q450 546 454 495T467 392T492 292T532 205T590 145T669 122Z" />
<glyph unicode="p" glyph-name="p" horiz-adv-x="1349" d="M193 -344V819L57 915V1041L428 1151L498 1133V1004Q503 1015 527 1039T593 1088T692 1132T822 1151Q912 1151 994 1123T1138 1030T1238 859T1276 595Q1276 470 1229 358T1097 160T899 26T650 -24Q615
-24 581 -19T532 -12L545 -177V-344L758 -373V-511H61V-373L193 -344ZM544 221Q552 204 570 191T611 169T662 156T714 151Q745 151 782 168T852 228T905 347T927 539Q927 671 902 754T840 885T759 950T678 968Q653 968 632 961T593 942T563 920T544 900V221Z" />
<glyph unicode="q" glyph-name="q" horiz-adv-x="1336" d="M73 552Q73 677 121 786T257 977T467 1104T735 1151Q761 1151 797 1148T872 1138T946 1118T1008 1088L1146 1151L1198 1128V-355L1330 -379V-511H653V-379L844 -356V-47L857 76Q843 62 820 45T764 13T685
-13T582 -24Q530 -24 472 -16T358 16T250 80T159 185T96 339T73 552ZM696 177Q744 177 781 187T844 218V944Q838 955 827 965T799 983T765 995T727 1000Q643 1000 589 971T503 890T458 765T442 603Q439 509 452 431T497 297T577 209T696 177Z" />
<glyph unicode="r" glyph-name="r" horiz-adv-x="966" d="M98 136L221 161V819L85 915V1041L456 1151L528 1133V937Q541 987 576 1027T654 1094T741 1136T816 1151Q851 1151 881 1148T924 1139V823Q912 835 890 844T844 859T795 868T753 871Q711 871 679 866T626
855T592 842T575 833V170L808 136V0H98V136Z" />
<glyph unicode="s" glyph-name="s" horiz-adv-x="1095" d="M99 329H264L327 220Q339 207 356 189T396 155T448 126T515 111Q605 106 651 141T697 236Q696 263 675 287T617 335T535 381T437 427Q366 460 301 497T187 583T109 691T81 830Q82 890 104 936T164 1018T250
1078T352 1118T458 1142T560 1151Q617 1152 675 1148T785 1135T882 1116T958 1093V820H782L726 944Q700 975 662 999T578 1023Q550 1023 524 1018T477 1002T444 973T431 931Q431 898 444 870T482 818T539 772T613 733Q661 711 710 689T807 642T895 588T968 522T1017
440T1035 336Q1035 237 992 169T876 57T706 -5T501 -24Q453 -24 400 -19T293 -3T189 25T99 66V329Z" />
<glyph unicode="t" glyph-name="t" horiz-adv-x="924" d="M181 940H29V1053Q84 1062 131 1079T212 1126Q244 1155 276 1216T341 1386H509V1119H851V940H525V575Q525 441 531 363T551 243T588 190T648 178Q668 178 693 180T742 187T787 198T822 213L874 100Q850
75 810 53T716 13T600 -14T470 -24Q383 -24 327 -2T239 65T194 179T181 345V940Z" />
<glyph unicode="u" glyph-name="u" horiz-adv-x="1331" d="M147 868L53 938V1060L435 1151L488 1134V438Q488 370 494 320T518 235T564 184T641 167Q666 167 692 171T743 181T787 198T819 220V851L692 922V1060L1110 1151L1166 1134V136H1280V29Q1263 17 1233
7T1163 -11T1081 -23T997 -28Q967 -28 941 -22T896 -3T865 31T854 82V120Q825 85 784 58T696 12T605 -18T524 -28Q419 -28 347 -4T231 72T167 202T147 391V868Z" />
<glyph unicode="v" glyph-name="v" horiz-adv-x="1285" d="M107 916L4 943V1119H581V941L492 912L655 439L709 250L752 442L898 913L777 940V1119H1279V941L1164 905L793 -5H504L107 916Z" />
<glyph unicode="w" glyph-name="w" horiz-adv-x="1842" d="M119 913L3 940V1119H571V940L473 913L587 449L621 291L644 419L834 1119H1125L1304 419L1335 278L1364 419L1473 910L1340 940V1119H1839V941L1699 907L1442 -5H1108L954 507L900 722L862 507L724 -5H403L119
913Z" />
<glyph unicode="x" glyph-name="x" horiz-adv-x="1298" d="M0 136L164 169L473 535L137 915L8 940V1119H636V940L543 915L580 861L702 698L728 740L869 921L742 940V1119H1297V940L1112 910L819 591L1170 167L1298 136V0H680V136L764 165L704 245L583 404L569
369L437 172L581 136V0H0V136Z" />
<glyph unicode="y" glyph-name="y" horiz-adv-x="1233" d="M147 -261Q173 -266 209 -272T295 -277Q319 -276 352 -268T420 -231T487 -148T542 0H486L92 914L5 940V1119H590V940L476 915L673 381L689 278L718 381L881 917L744 940V1119H1252V940L1152 919Q1078
731 1022 591T925 349T856 179T810 65T780 -9T761 -56Q717 -173 672 -263T574 -416T455 -510T306 -542Q285 -542 262 -542T215 -539Q192 -537 174 -535T145 -527L147 -261Z" />
<glyph unicode="z" glyph-name="z" horiz-adv-x="1151" d="M52 100L167 284L604 878L689 968L344 948L278 746H96V1119H1053L1104 995L628 303L505 151L868 186L928 358H1113L1097 0H98L52 100Z" />
<glyph unicode="{" glyph-name="braceleft" horiz-adv-x="1133" d="M259 559Q259 583 245 603T206 637T149 661T82 673V894Q120 898 152 905T208 923T245 953T259 999V1558Q259 1632 280 1680T339 1756T427 1796T535 1807Q576 1807 623 1799T716 1780T806 1755T881
1733Q881 1701 881 1670T880 1607H573V971Q573 935 562 910T531 865Q502 837 458 818T359 776Q410 756 453 737T525 689Q548 668 560 641T573 575V-59H880Q880 -91 880 -123T881 -187Q849 -196 809 -208T726 -232T639 -251T554 -259Q496 -259 443 -249T349 -210T284
-128T259 10V559Z" />
<glyph unicode="|" glyph-name="bar" horiz-adv-x="1088" d="M367 1780H721V-186H367V1780Z" />
<glyph unicode="}" glyph-name="braceright" horiz-adv-x="1133" d="M554 -59V575Q554 613 566 640T602 689Q631 717 673 736T767 776Q714 799 670 818T596 865Q576 885 565 910T554 971V1607H247Q247 1639 247 1670T246 1733Q278 1742 321 1755T410 1779T504
1799T592 1807Q650 1807 700 1796T787 1757T846 1680T868 1558V999Q868 971 881 953T918 924T974 905T1045 894V673Q1010 670 978 661T922 638T883 603T868 559V10Q868 -75 844 -127T778 -209T684 -249T573 -259Q532 -259 488 -251T401 -232T318 -209T246 -187Q246
-155 246 -123T247 -59H554Z" />
<glyph unicode="~" glyph-name="asciitilde" horiz-adv-x="1317" d="M146 852Q149 871 164 896T204 949T261 1003T331 1050T408 1084T491 1097Q534 1097 568 1087T630 1061T684 1027T735 994T789 968T854 957Q889 957 922 967T983 993T1034 1026T1072 1057L1171
931Q1166 899 1137 857T1061 776T954 711T829 684Q786 684 753 694T692 721T639 755T588 789T531 815T460 826Q425 826 393 816T332 790T282 757T244 726L146 852Z" />
<glyph unicode="&#xa0;" glyph-name="nbspace" horiz-adv-x="560" />
<glyph unicode="&#xa1;" glyph-name="exclamdown" horiz-adv-x="813" d="M403 1027Q365 1027 329 1039T264 1075T218 1133T200 1213Q200 1261 222 1302T278 1374T355 1422T438 1440Q491 1440 530 1425T594 1383T632 1322T645 1246Q645 1195 624 1155T569 1086T491
1042T403 1027ZM320 825H502L646 -445H167L320 825Z" />
<glyph unicode="&#xa2;" glyph-name="cent" horiz-adv-x="1214" d="M513 -15Q411 4 333 52T202 170T122 331T94 525Q93 659 134 767T248 953T420 1080T636 1144L649 1362H842L830 1149Q870 1146 908 1142T980 1131T1040 1116T1084 1099V782H901L822 970Q794 987
758 991T690 995Q639 995 598 970T528 898T481 781T461 624Q457 503 482 417T553 275T659 195T787 169Q832 169 875 175T954 190T1020 213T1068 240L1121 115Q1049 53 944 17T706 -26L696 -217H501L513 -15Z" />
<glyph unicode="&#xa3;" glyph-name="sterling" horiz-adv-x="1548" d="M3 71Q3 100 22 130T82 184T183 223T326 238Q334 257 339 276T348 320T352 375T354 450V691H196V890H354V939Q354 1056 392 1168T503 1370T683 1513T929 1568Q1014 1568 1099 1544T1254 1461L1097
1177Q1092 1190 1081 1211T1051 1258T1008 1309T954 1356T892 1390T822 1403Q788 1403 766 1384T732 1317T715 1190T710 992V890H961V691H710V635Q710 559 704 497T684 382T646 287T587 205Q626 201 655 193T716 177T786 161T879 152Q929 150 971 163T1043 197T1089
246T1106 299Q1106 326 1095 348T1068 387T1036 415T1010 433L1146 700Q1198 691 1245 661T1329 586T1386 484T1408 365Q1408 331 1400 288T1371 200T1315 112T1227 36T1100 -18T929 -39Q862 -39 808 -30T708 -8T626 22T558 50T499 71T444 77Q402 32 335 3T176
-29Q140 -30 109 -24T54 -6T17 26T3 71Z" />
<glyph unicode="&#xa4;" glyph-name="currency" horiz-adv-x="1491" d="M364 469Q335 517 320 572T305 688Q305 750 321 806T367 911L156 1126L312 1286L530 1065L529 1064Q575 1089 626 1102T735 1116Q792 1116 844 1102T943 1063L1183 1297L1341 1136L1106 906Q1135
858 1150 803T1166 688Q1166 629 1152 576T1110 475L1326 257L1168 99L950 317Q902 290 848 276T735 261Q678 261 626 274T526 314L309 97L150 254L364 469ZM553 688Q553 651 567 617T607 557T666 514T737 498Q774 498 807 514T864 556T903 617T917 688Q917 725
903 759T865 819T807 861T737 877Q699 877 666 862T608 820T568 759T553 688Z" />
<glyph unicode="&#xa5;" glyph-name="yen" horiz-adv-x="1526" d="M325 140L565 185V350H205V517H565V654L531 711H205V879H432L144 1369L28 1389V1553H658V1392L552 1372L719 1013L776 879H790L855 1022Q893 1103 930 1190T1005 1365L850 1389L849 1553H1412V1389L1272
1349L1018 879H1296V711H927L921 700V517H1296V350H921V187L1179 140V0H325V140Z" />
<glyph unicode="&#xa6;" glyph-name="brokenbar" horiz-adv-x="1088" d="M367 1780H721V907H367V1780ZM367 688H721V-185H367V688Z" />
<glyph unicode="&#xa7;" glyph-name="section" horiz-adv-x="1353" d="M185 213H328L425 7Q441 -25 466 -45T522 -76T586 -91T652 -96Q697 -96 737 -88T809 -63T858 -17T876 52Q876 106 844 147T760 222T641 287T504 350T368 419T249 505T164 614T132 756Q132
797 145 842T181 932T236 1015T305 1083Q240 1134 199 1198T158 1349Q158 1417 180 1474T241 1579T332 1662T447 1722T576 1759T712 1772Q779 1772 838 1766T947 1751T1035 1729T1097 1703V1396H955L833 1567Q819 1585 785 1601T685 1617Q657 1617 624 1606T563
1571T515 1510T495 1420Q495 1370 524 1333T603 1265T715 1207T843 1149T971 1083T1083 997T1162 884T1191 733Q1190 639 1154 556T1059 415Q1094 390 1123 362T1174 302T1208 232T1220 151Q1220 70 1199 8T1142 -100T1054 -178T942 -229T812 -256T670 -265Q591
-265 514 -258T372 -240T257 -215T185 -188V213ZM426 827Q426 772 466 730T570 653T715 584T877 514Q891 542 901 575T912 634Q912 694 872 740T769 827T627 903T470 981Q452 952 439 912T426 827Z" />
<glyph unicode="&#xa8;" glyph-name="dieresis" horiz-adv-x="1062" d="M781 1349Q746 1349 714 1358T656 1385T615 1429T600 1489Q600 1524 618 1553T665 1604T732 1638T807 1650Q856 1650 890 1640T945 1611T975 1567T985 1512Q985 1474 968 1444T923 1393T858
1361T781 1349ZM253 1348Q217 1348 185 1357T129 1383T90 1427T76 1486Q76 1522 93 1552T140 1604T205 1638T281 1650Q330 1650 364 1639T421 1610T454 1566T465 1510Q465 1473 448 1443T401 1392T333 1360T253 1348Z" />
<glyph unicode="&#xa9;" glyph-name="copyright" horiz-adv-x="2112" d="M1056 219Q927 219 812 248T600 331T426 461T295 632T212 837T183 1069Q183 1191 214 1301T301 1506T437 1677T613 1808T822 1891T1056 1920Q1177 1920 1288 1892T1497 1810T1673 1681T1810
1511T1898 1305T1929 1069Q1929 953 1898 845T1810 642T1674 470T1497 336T1289 250T1056 219ZM1055 374Q1149 374 1237 398T1401 466T1540 573T1648 713T1717 880T1742 1069Q1742 1168 1718 1258T1648 1426T1540 1566T1401 1673T1237 1741T1055 1765Q960 1765
872 1741T708 1673T570 1567T463 1427T394 1259T369 1069Q369 970 394 880T464 713T573 574T712 467T875 398T1055 374ZM1056 586Q939 586 850 621T701 720T611 870T580 1061Q580 1172 620 1268T733 1435T907 1548T1130 1589Q1185 1589 1226 1586T1297 1576T1351
1560T1395 1539V1233H1205L1137 1387Q1126 1397 1103 1400T1059 1405Q983 1406 949 1336T915 1126Q915 1046 936 988T991 892T1067 836T1154 817Q1174 817 1199 817T1253 822T1312 834T1372 859L1415 732Q1391 700 1350 673T1259 627T1157 597T1056 586Z" />
<glyph unicode="&#xaa;" glyph-name="ordfeminine" horiz-adv-x="1169" d="M435 733Q385 733 337 749T251 797T189 876T165 986Q165 1046 193 1091T267 1169T370 1223T485 1257T595 1275T684 1280V1298Q684 1338 671 1361T635 1398T580 1415T507 1419Q471 1419
436 1414T370 1402T315 1385T277 1366L225 1515Q239 1524 275 1537T363 1562T479 1583T614 1592Q662 1592 709 1588T798 1573T876 1542T938 1488T978 1408T993 1296L991 886H1074V780Q1052 775 1022 767T957 752T888 739T819 733Q798 733 780 736T746 747T719 770T700
811Q662 779 597 756T435 733ZM539 904Q568 895 602 897T685 914L682 929L683 1164Q650 1160 611 1151T539 1124T482 1080T459 1014Q459 999 463 983T477 951T502 924T539 904Z" />
<glyph unicode="&#xab;" glyph-name="guillemotleft" horiz-adv-x="2155" d="M1101 757L1840 1144L1926 1008L1470 614L1926 238L1840 90L1101 452V757ZM229 757L968 1144L1054 1008L598 614L1054 238L968 90L229 452V757Z" />
<glyph unicode="&#xac;" glyph-name="logicalnot" horiz-adv-x="1392" d="M183 958H1209V367H895V745H183V958Z" />
<glyph unicode="&#xae;" glyph-name="registered" horiz-adv-x="2112" d="M1056 219Q927 219 812 248T600 331T426 461T295 632T212 837T183 1069Q183 1191 214 1301T301 1506T437 1677T613 1808T822 1891T1056 1920Q1177 1920 1288 1892T1497 1810T1673 1681T1810
1511T1898 1305T1929 1069Q1929 953 1898 845T1810 642T1674 470T1497 336T1289 250T1056 219ZM1055 374Q1149 374 1237 398T1401 466T1540 573T1648 713T1717 880T1742 1069Q1742 1168 1718 1258T1648 1426T1540 1566T1401 1673T1237 1741T1055 1765Q960 1765
872 1741T708 1673T570 1567T463 1427T394 1259T369 1069Q369 970 394 880T464 713T573 574T712 467T875 398T1055 374ZM599 734L677 772V1413L599 1440V1575H821Q843 1574 875 1574T945 1576T1023 1578T1102 1579Q1296 1579 1398 1519T1504 1322Q1504 1274 1490
1223T1444 1131T1364 1063T1246 1036Q1295 1034 1328 1012T1386 958T1427 888T1463 819T1502 766T1554 745V616H1256Q1231 616 1215 639T1186 699T1158 780T1124 865T1073 938T998 983V756L1069 734V613H599V734ZM998 1139Q1015 1134 1029 1133T1070 1132Q1088
1132 1108 1138T1144 1162T1170 1208T1181 1280Q1181 1321 1173 1348T1146 1390T1095 1412T1014 1419Q1009 1419 1002 1416T998 1411V1139Z" />
<glyph unicode="&#xaf;" glyph-name="overscore" horiz-adv-x="1082" d="M258 1584H824V1343H258V1584Z" />
<glyph unicode="&#xb0;" glyph-name="degree" horiz-adv-x="911" d="M455 893Q381 893 317 921T203 996T126 1108T98 1244Q98 1316 126 1379T203 1491T316 1566T455 1594Q529 1594 594 1566T708 1489T785 1378T813 1244Q813 1172 785 1108T709 997T595 921T455
893ZM454 1075Q488 1075 517 1087T568 1122T602 1176T615 1244Q615 1279 603 1310T569 1364T518 1402T454 1416Q418 1416 389 1403T338 1367T305 1313T293 1244Q293 1207 305 1176T338 1123T388 1088T454 1075Z" />
<glyph unicode="&#xb1;" glyph-name="plusminus" horiz-adv-x="1328" d="M537 534L547 722L392 712H181V968H392L547 958L537 1146V1358H799V1146L789 958L944 968H1155V712H944L789 722L799 534V342H537V534ZM183 236H1137V0H183V236Z" />
<glyph unicode="&#xb2;" glyph-name="twosuperior" horiz-adv-x="1238" d="M139 876Q166 891 207 914T296 966T397 1030T500 1102T594 1178T670 1256T717 1332T725 1404Q720 1425 708 1446T675 1483T623 1510T549 1520Q501 1520 456 1503T372 1461T299 1406T242
1354L159 1472Q182 1512 228 1557T336 1641T470 1705T618 1730Q829 1730 938 1655T1047 1437Q1047 1380 1026 1330T966 1234T872 1143T749 1055T602 963T436 865L915 951L1015 1100L1178 1056L1110 720H202L139 876Z" />
<glyph unicode="&#xb3;" glyph-name="threesuperior" horiz-adv-x="1137" d="M198 803Q220 797 249 793T308 785T366 780T416 780Q541 788 614 824T702 924Q704 932 706 947T707 981T699 1020T677 1061T637 1097T573 1125L343 1069L346 1232Q407 1250 460 1270T554
1312T624 1358T663 1411Q668 1425 669 1442T668 1478Q666 1500 650 1514T611 1537T564 1549T523 1553Q496 1554 462 1549T389 1534T310 1506T230 1465L159 1585Q187 1611 236 1636T345 1681T472 1712T602 1723Q710 1721 781 1694T895 1630T954 1553T971 1483Q971
1443 962 1408T931 1342T870 1282T775 1228Q832 1221 873 1202T942 1156T987 1102T1013 1048T1025 1003T1028 977Q1028 911 999 847T909 731T753 648T525 616Q459 616 408 620T317 631T248 644T198 656V803Z" />
<glyph unicode="&#xb4;" glyph-name="acute" horiz-adv-x="887" d="M366 1425L681 1851L936 1656Q900 1599 844 1550T723 1460T588 1388T454 1336L366 1425Z" />
<glyph unicode="&#xb5;" glyph-name="mu" horiz-adv-x="1564" d="M234 858L125 928V1056L528 1151L581 1134V412Q581 344 595 301T633 231T691 195T764 185Q815 185 855 192T912 210V851L785 922V1060L1203 1151L1259 1134V136H1373V29Q1356 17 1326 7T1256 -11T1174
-23T1090 -28Q1060 -28 1034 -22T989 -3T958 31T947 82V110Q890 41 819 7T676 -28Q650 -28 627 -26T581 -18V-373H234V858Z" />
<glyph unicode="&#xb6;" glyph-name="paragraph" horiz-adv-x="1612" d="M444 143L655 192V656Q557 656 469 682T312 764T204 905T164 1107Q164 1209 193 1295T290 1442T464 1538T726 1573Q750 1573 798 1572T907 1569T1035 1565T1166 1560T1281 1556T1363 1553H1577V1384L1377
1325V192L1581 143V0H1114L1112 1361H936V0H444V143Z" />
<glyph unicode="&#xb7;" glyph-name="middot" horiz-adv-x="773" d="M367 641Q329 641 293 653T228 689T182 747T164 827Q164 875 186 916T242 988T319 1036T402 1054Q455 1054 494 1039T558 997T596 936T609 860Q609 809 588 769T533 700T455 656T367 641Z" />
<glyph unicode="&#xb8;" glyph-name="cedilla" horiz-adv-x="674" d="M370 10Q368 -2 368 -20T367 -57T369 -96T372 -131Q435 -137 476 -159T542 -210T576 -270T586 -324Q586 -374 567 -411T514 -474T431 -514T325 -531Q278 -533 237 -531T163 -523T103 -511T61
-501V-352Q73 -355 92 -357T130 -362T165 -365T187 -366Q219 -366 237 -351T256 -310Q256 -281 238 -267T194 -253Q188 -253 179 -253T160 -254T144 -256T136 -257Q136 -233 141 -194T155 -114T174 -39T194 10H370Z" />
<glyph unicode="&#xb9;" glyph-name="onesuperior" horiz-adv-x="1124" d="M199 855L458 895V1414Q438 1412 409 1408T348 1399T284 1389T227 1379L191 1534Q226 1540 274 1553T375 1584T483 1622T582 1661T661 1696T707 1722L788 1707V894L1024 855V718H199V855Z" />
<glyph unicode="&#xba;" glyph-name="ordmasculine" horiz-adv-x="1169" d="M566 732Q463 732 381 759T240 841T152 977T123 1166Q124 1245 144 1307T200 1416T280 1496T377 1550T481 1581T586 1593Q698 1596 784 1565T929 1477T1017 1337T1046 1156Q1045 1078
1024 1016T968 907T885 827T785 773T676 742T566 732ZM590 866Q626 866 653 877T697 920T724 1007T733 1151Q733 1226 722 1284T691 1382T645 1442T590 1463Q568 1463 541 1453T491 1411T452 1322T436 1169Q436 1092 448 1035T482 941T532 885T590 866Z" />
<glyph unicode="&#xbb;" glyph-name="guillemotright" horiz-adv-x="2155" d="M1550 619L1095 996L1181 1144L1920 782V477L1181 90L1095 226L1550 619ZM678 619L223 996L309 1144L1048 782V477L309 90L223 226L678 619Z" />
<glyph unicode="&#xbc;" glyph-name="onequarter" horiz-adv-x="2732" d="M1638 1890L1852 1818L1052 -343L842 -268L1638 1890ZM295 855L554 895V1414Q534 1412 505 1408T444 1399T380 1389T323 1379L287 1534Q322 1540 370 1553T471 1584T579 1622T678 1661T757
1696T803 1722L884 1707V894L1120 855V718H295V855ZM1989 1056H2113L2249 900L1792 373L1711 279L2032 314L2044 512L2293 541V342L2492 364V107H2293L2294 -177H2004L2020 107H1521L1470 256L1989 1056Z" />
<glyph unicode="&#xbd;" glyph-name="onehalf" horiz-adv-x="2732" d="M1638 1881L1852 1818L1052 -343L842 -268L1638 1881ZM295 855L554 895V1414Q534 1412 505 1408T444 1399T380 1389T323 1379L287 1534Q322 1540 370 1553T471 1584T579 1622T678 1661T757
1696T803 1722L884 1707V894L1120 855V718H295V855ZM1564 154Q1591 169 1632 192T1721 244T1822 308T1925 380T2019 456T2095 534T2142 610T2150 682Q2145 703 2133 724T2100 761T2048 788T1974 798Q1926 798 1881 781T1797 739T1724 684T1667 632L1584 750Q1607
790 1653 835T1761 919T1895 983T2043 1008Q2254 1008 2363 933T2472 715Q2472 658 2451 608T2391 512T2297 421T2174 333T2027 241T1861 143L2340 229L2440 378L2603 334L2535 -2H1627L1564 154Z" />
<glyph unicode="&#xbe;" glyph-name="threequarters" horiz-adv-x="2902" d="M1638 1881L1852 1818L1052 -343L842 -268L1638 1881ZM339 803Q361 797 390 793T449 785T507 780T557 780Q682 788 755 824T843 924Q845 932 847 947T848 981T840 1020T818 1061T778
1097T714 1125L484 1069L487 1232Q548 1250 601 1270T695 1312T765 1358T804 1411Q809 1425 810 1442T809 1478Q807 1500 791 1514T752 1537T705 1549T664 1553Q637 1554 603 1549T530 1534T451 1506T371 1465L300 1585Q328 1611 377 1636T486 1681T613 1712T743
1723Q851 1721 922 1694T1036 1630T1095 1553T1112 1483Q1112 1443 1103 1408T1072 1342T1011 1282T916 1228Q973 1221 1014 1202T1083 1156T1128 1102T1154 1048T1166 1003T1169 977Q1169 911 1140 847T1050 731T894 648T666 616Q600 616 549 620T458 631T389
644T339 656V803ZM1969 1056H2113L2249 900L1792 373L1711 279L2032 314L2044 512L2293 541V342L2492 364V107H2293L2294 -177H2004L2020 107H1521L1470 256L1969 1056Z" />
<glyph unicode="&#xbf;" glyph-name="questiondown" horiz-adv-x="1063" d="M494 1044Q456 1044 420 1056T355 1092T309 1150T291 1230Q291 1278 313 1319T369 1391T446 1439T529 1457Q582 1457 621 1442T685 1400T723 1339T736 1263Q736 1212 715 1172T660 1103T582
1059T494 1044ZM145 343Q154 358 180 373T244 405T323 440T406 477T481 519T537 565Q548 578 548 604T542 663T523 730T497 797T471 854T450 892H700Q745 849 776 806T828 722T857 646T867 582Q867 543 845 512T785 457T699 413T600 377T500 347T411 319T344 291T312
258Q316 181 341 122T406 20T492 -53T588 -100T679 -126T752 -136Q845 -140 899 -132T980 -103L995 -375Q988 -386 962 -395T900 -412T823 -424T745 -426Q582 -419 469 -372T281 -255T169 -99T118 69T114 225T145 343Z" />
<glyph unicode="&#xc0;" glyph-name="Agrave" horiz-adv-x="1600" d="M570 1920L943 1700L842 1593Q831 1592 800 1596T727 1608T635 1627T538 1654T448 1688T377 1728L570 1920ZM5 140L138 180L631 1553H964L1443 178L1595 138V0H911V138L1045 183L1002 335H461L416
187L565 140V0H5V140ZM948 521L815 979L742 1253L518 521H948Z" />
<glyph unicode="&#xc1;" glyph-name="Aacute" horiz-adv-x="1600" d="M647 1700L1040 1920L1233 1728Q1205 1707 1161 1689T1067 1655T965 1628T869 1608T792 1596T748 1593L647 1700ZM5 140L138 180L631 1553H964L1443 178L1595 138V0H911V138L1045 183L1002
335H461L416 187L565 140V0H5V140ZM948 521L815 979L742 1253L518 521H948Z" />
<glyph unicode="&#xc2;" glyph-name="Acircumflex" horiz-adv-x="1600" d="M410 1670L685 1920H917L1187 1670L1075 1597L803 1726L521 1597L410 1670ZM5 140L138 180L631 1553H964L1443 178L1595 138V0H911V138L1045 183L1002 335H461L416 187L565 140V0H5V140ZM948
521L815 979L742 1253L518 521H948Z" />
<glyph unicode="&#xc3;" glyph-name="Atilde" horiz-adv-x="1600" d="M372 1712Q388 1756 425 1794T508 1860T599 1904T680 1920Q735 1920 775 1905T849 1870T912 1836T973 1820Q1027 1820 1066 1841T1139 1891L1228 1794Q1211 1750 1175 1715T1096 1654T1007
1616T927 1603Q873 1603 831 1619T755 1654T690 1690T627 1706Q582 1706 538 1685T459 1634L372 1712ZM5 140L138 180L631 1553H964L1443 178L1595 138V0H911V138L1045 183L1002 335H461L416 187L565 140V0H5V140ZM948 521L815 979L742 1253L518 521H948Z" />
<glyph unicode="&#xc4;" glyph-name="Adieresis" horiz-adv-x="1600" d="M1060 1619Q1025 1619 993 1628T935 1655T894 1699T879 1759Q879 1794 897 1823T944 1874T1011 1908T1086 1920Q1135 1920 1169 1910T1224 1881T1254 1837T1264 1782Q1264 1744 1247 1714T1202
1663T1137 1631T1060 1619ZM512 1618Q476 1618 444 1627T388 1653T349 1697T335 1756Q335 1792 352 1822T399 1874T464 1908T540 1920Q589 1920 623 1909T680 1880T713 1836T724 1780Q724 1743 707 1713T660 1662T592 1630T512 1618ZM5 140L138 180L631 1553H964L1443
178L1595 138V0H911V138L1045 183L1002 335H461L416 187L565 140V0H5V140ZM948 521L815 979L742 1253L518 521H948Z" />
<glyph unicode="&#xc5;" glyph-name="Aring" horiz-adv-x="1600" d="M5 140L138 180L606 1483Q559 1514 531 1561T503 1673Q503 1732 525 1778T587 1855T681 1903T800 1920Q864 1920 919 1903T1014 1854T1076 1776T1099 1673Q1099 1607 1069 1559T990 1479L1443
178L1595 138V0H911V138L1045 183L1002 335H461L416 187L565 140V0H5V140ZM800 1555Q827 1555 849 1564T889 1588T915 1626T925 1674Q925 1698 916 1720T889 1758T850 1784T800 1794Q743 1794 709 1760T674 1674Q674 1622 708 1589T800 1555ZM948 521L815 979L742
1253L518 521H948Z" />
<glyph unicode="&#xc6;" glyph-name="AE" horiz-adv-x="1937" d="M5 141L126 174L680 1553H1743L1779 1211H1586L1521 1360L1092 1382L1242 899L1494 905L1531 1055H1690V560H1530L1491 704L1298 719L1474 149L1642 178L1753 366L1927 332L1876 0H937V140L1095
181L1049 336H437L378 182L555 141V0H5V141ZM992 531L821 1112L788 1262L511 531H992Z" />
<glyph unicode="&#xc7;" glyph-name="Ccedilla" horiz-adv-x="1465" d="M63 724Q63 853 97 966T191 1172T333 1339T513 1463T720 1540T943 1567Q1019 1567 1082 1560T1197 1542T1290 1521T1367 1503L1347 1114H1137L1064 1319Q1054 1334 1040 1345T1001 1365T940
1377T848 1382Q765 1382 694 1345T571 1235T488 1058T458 816Q458 730 470 647T505 488T563 350T644 241T747 169T871 143Q934 143 977 149T1047 167T1090 192T1112 223L1194 424H1368V67Q1335 65 1299 54T1215 27T1105 -2T960 -23Q959 -49 961 -78T965 -131Q1028
-137 1069 -159T1135 -210T1169 -270T1179 -324Q1179 -374 1160 -411T1107 -474T1024 -514T918 -531Q871 -533 830 -531T756 -523T696 -511T654 -501V-352Q666 -355 685 -357T723 -362T758 -365T780 -366Q812 -366 830 -351T849 -310Q849 -281 831 -267T787 -253Q781
-253 772 -253T753 -254T737 -256T729 -257Q729 -238 732 -208T742 -146T755 -81T771 -25Q597 -14 465 48T243 211T109 443T63 724Z" />
<glyph unicode="&#xc8;" glyph-name="Egrave" horiz-adv-x="1426" d="M512 1920L885 1700L784 1593Q773 1592 742 1596T669 1608T577 1627T480 1654T390 1688T319 1728L512 1920ZM101 140L248 179V1367L106 1389V1553H1241L1272 1211H1067L973 1371L603 1392V873L859
883L913 1032H1094V544H913L859 703L603 709V160L1042 188L1169 386L1377 349L1323 0H101V140Z" />
<glyph unicode="&#xc9;" glyph-name="Eacute" horiz-adv-x="1426" d="M589 1700L982 1920L1175 1728Q1147 1707 1103 1689T1009 1655T907 1628T811 1608T734 1596T690 1593L589 1700ZM101 140L248 179V1367L106 1389V1553H1241L1272 1211H1067L973 1371L603 1392V873L859
883L913 1032H1094V544H913L859 703L603 709V160L1042 188L1169 386L1377 349L1323 0H101V140Z" />
<glyph unicode="&#xca;" glyph-name="Ecircumflex" horiz-adv-x="1426" d="M352 1670L627 1920H859L1129 1670L1017 1597L745 1726L463 1597L352 1670ZM101 140L248 179V1367L106 1389V1553H1241L1272 1211H1067L973 1371L603 1392V873L859 883L913 1032H1094V544H913L859
703L603 709V160L1042 188L1169 386L1377 349L1323 0H101V140Z" />
<glyph unicode="&#xcb;" glyph-name="Edieresis" horiz-adv-x="1426" d="M1002 1619Q967 1619 935 1628T877 1655T836 1699T821 1759Q821 1794 839 1823T886 1874T953 1908T1028 1920Q1077 1920 1111 1910T1166 1881T1196 1837T1206 1782Q1206 1744 1189 1714T1144
1663T1079 1631T1002 1619ZM454 1618Q418 1618 386 1627T330 1653T291 1697T277 1756Q277 1792 294 1822T341 1874T406 1908T482 1920Q531 1920 565 1909T622 1880T655 1836T666 1780Q666 1743 649 1713T602 1662T534 1630T454 1618ZM101 140L248 179V1367L106
1389V1553H1241L1272 1211H1067L973 1371L603 1392V873L859 883L913 1032H1094V544H913L859 703L603 709V160L1042 188L1169 386L1377 349L1323 0H101V140Z" />
<glyph unicode="&#xcc;" glyph-name="Igrave" horiz-adv-x="848" d="M460 1593Q449 1592 418 1596T345 1608T253 1627T156 1654T66 1688T-5 1728L188 1920L561 1700L460 1593ZM55 140L243 181V1365L55 1389V1553H782V1389L604 1364V183L793 140V0H55V140Z" />
<glyph unicode="&#xcd;" glyph-name="Iacute" horiz-adv-x="848" d="M265 1700L658 1920L851 1728Q823 1707 779 1689T685 1655T583 1628T487 1608T410 1596T366 1593L265 1700ZM55 140L243 181V1365L55 1389V1553H782V1389L604 1364V183L793 140V0H55V140Z" />
<glyph unicode="&#xce;" glyph-name="Icircumflex" horiz-adv-x="848" d="M28 1670L303 1920H535L805 1670L693 1597L421 1726L139 1597L28 1670ZM55 140L243 181V1365L55 1389V1553H782V1389L604 1364V183L793 140V0H55V140Z" />
<glyph unicode="&#xcf;" glyph-name="Idieresis" horiz-adv-x="848" d="M678 1619Q643 1619 611 1628T553 1655T512 1699T497 1759Q497 1794 515 1823T562 1874T629 1908T704 1920Q753 1920 787 1910T842 1881T872 1837T882 1782Q882 1744 865 1714T820 1663T755
1631T678 1619ZM130 1618Q94 1618 62 1627T6 1653T-33 1697T-47 1756Q-47 1792 -30 1822T17 1874T82 1908T158 1920Q207 1920 241 1909T298 1880T331 1836T342 1780Q342 1743 325 1713T278 1662T210 1630T130 1618ZM55 140L243 181V1365L55 1389V1553H782V1389L604
1364V183L793 140V0H55V140Z" />
<glyph unicode="&#xd0;" glyph-name="Eth" horiz-adv-x="1611" d="M90 140L235 180V704H49V911H235V1368L94 1389V1553H422Q455 1553 495 1555T581 1560T676 1565T773 1567Q978 1567 1125 1512T1367 1359T1506 1123T1551 822Q1551 625 1492 471T1327 210T1072
47T746 -10Q708 -10 665 -9T578 -5T496 -1T428 1Q343 1 259 1T90 0V140ZM593 179Q630 156 690 149T830 149Q905 156 968 202T1077 327T1150 513T1176 748Q1176 1077 1070 1240T749 1407Q727 1407 704 1405T660 1400T622 1391T593 1378V911H867V704H593V179Z" />
<glyph unicode="&#xd1;" glyph-name="Ntilde" horiz-adv-x="1686" d="M438 1712Q454 1756 491 1794T574 1860T665 1904T746 1920Q801 1920 841 1905T915 1870T978 1836T1039 1820Q1093 1820 1132 1841T1205 1891L1294 1794Q1277 1750 1241 1715T1162 1654T1073
1616T993 1603Q939 1603 897 1619T821 1654T756 1690T693 1706Q648 1706 604 1685T525 1634L438 1712ZM63 140L220 185V1346L70 1368V1553H579L1181 505L1269 269V1342L1089 1370V1553H1633V1370L1496 1348V0H1104L559 917L450 1187Q450 936 450 687T451 189L654
140V0H63V140Z" />
<glyph unicode="&#xd2;" glyph-name="Ograve" horiz-adv-x="1600" d="M585 1920L958 1700L857 1593Q846 1592 815 1596T742 1608T650 1627T553 1654T463 1688T392 1728L585 1920ZM66 754Q69 880 99 989T181 1188T303 1349T456 1468T631 1542T818 1567Q981 1567
1115 1509T1343 1346T1487 1100T1534 790Q1530 601 1473 450T1317 192T1085 29T797 -28Q627 -28 490 32T258 197T113 446T66 754ZM810 132Q907 132 971 173T1073 296T1126 501T1142 789Q1142 854 1134 925T1110 1064T1067 1193T1003 1301T918 1374T809 1402Q710
1402 643 1360T535 1235T477 1033T459 755Q459 696 467 627T492 489T538 356T605 242T695 162T810 132Z" />
<glyph unicode="&#xd3;" glyph-name="Oacute" horiz-adv-x="1600" d="M662 1700L1055 1920L1248 1728Q1220 1707 1176 1689T1082 1655T980 1628T884 1608T807 1596T763 1593L662 1700ZM66 754Q69 880 99 989T181 1188T303 1349T456 1468T631 1542T818 1567Q981
1567 1115 1509T1343 1346T1487 1100T1534 790Q1530 601 1473 450T1317 192T1085 29T797 -28Q627 -28 490 32T258 197T113 446T66 754ZM810 132Q907 132 971 173T1073 296T1126 501T1142 789Q1142 854 1134 925T1110 1064T1067 1193T1003 1301T918 1374T809 1402Q710
1402 643 1360T535 1235T477 1033T459 755Q459 696 467 627T492 489T538 356T605 242T695 162T810 132Z" />
<glyph unicode="&#xd4;" glyph-name="Ocircumflex" horiz-adv-x="1600" d="M425 1670L700 1920H932L1202 1670L1090 1597L818 1726L536 1597L425 1670ZM66 754Q69 880 99 989T181 1188T303 1349T456 1468T631 1542T818 1567Q981 1567 1115 1509T1343 1346T1487
1100T1534 790Q1530 601 1473 450T1317 192T1085 29T797 -28Q627 -28 490 32T258 197T113 446T66 754ZM810 132Q907 132 971 173T1073 296T1126 501T1142 789Q1142 854 1134 925T1110 1064T1067 1193T1003 1301T918 1374T809 1402Q710 1402 643 1360T535 1235T477
1033T459 755Q459 696 467 627T492 489T538 356T605 242T695 162T810 132Z" />
<glyph unicode="&#xd5;" glyph-name="Otilde" horiz-adv-x="1600" d="M387 1712Q403 1756 440 1794T523 1860T614 1904T695 1920Q750 1920 790 1905T864 1870T927 1836T988 1820Q1042 1820 1081 1841T1154 1891L1243 1794Q1226 1750 1190 1715T1111 1654T1022
1616T942 1603Q888 1603 846 1619T770 1654T705 1690T642 1706Q597 1706 553 1685T474 1634L387 1712ZM66 754Q69 880 99 989T181 1188T303 1349T456 1468T631 1542T818 1567Q981 1567 1115 1509T1343 1346T1487 1100T1534 790Q1530 601 1473 450T1317 192T1085
29T797 -28Q627 -28 490 32T258 197T113 446T66 754ZM810 132Q907 132 971 173T1073 296T1126 501T1142 789Q1142 854 1134 925T1110 1064T1067 1193T1003 1301T918 1374T809 1402Q710 1402 643 1360T535 1235T477 1033T459 755Q459 696 467 627T492 489T538 356T605
242T695 162T810 132Z" />
<glyph unicode="&#xd6;" glyph-name="Odieresis" horiz-adv-x="1600" d="M1075 1619Q1040 1619 1008 1628T950 1655T909 1699T894 1759Q894 1794 912 1823T959 1874T1026 1908T1101 1920Q1150 1920 1184 1910T1239 1881T1269 1837T1279 1782Q1279 1744 1262 1714T1217
1663T1152 1631T1075 1619ZM527 1618Q491 1618 459 1627T403 1653T364 1697T350 1756Q350 1792 367 1822T414 1874T479 1908T555 1920Q604 1920 638 1909T695 1880T728 1836T739 1780Q739 1743 722 1713T675 1662T607 1630T527 1618ZM66 754Q69 880 99 989T181
1188T303 1349T456 1468T631 1542T818 1567Q981 1567 1115 1509T1343 1346T1487 1100T1534 790Q1530 601 1473 450T1317 192T1085 29T797 -28Q627 -28 490 32T258 197T113 446T66 754ZM810 132Q907 132 971 173T1073 296T1126 501T1142 789Q1142 854 1134 925T1110
1064T1067 1193T1003 1301T918 1374T809 1402Q710 1402 643 1360T535 1235T477 1033T459 755Q459 696 467 627T492 489T538 356T605 242T695 162T810 132Z" />
<glyph unicode="&#xd7;" glyph-name="multiply" horiz-adv-x="1422" d="M187 483L549 830L187 1177L362 1358L710 993L1058 1358L1234 1177L872 830L1234 483L1059 302L711 667L363 302L187 483Z" />
<glyph unicode="&#xd8;" glyph-name="Oslash" horiz-adv-x="1600" d="M466 43Q370 89 295 160T167 324T89 525T66 754Q69 880 99 989T181 1188T303 1349T456 1468T631 1542T818 1567Q874 1567 926 1560T1028 1539L1081 1692L1209 1648L1153 1490Q1244 1444 1315
1374T1436 1213T1511 1016T1534 790Q1530 601 1473 450T1317 192T1085 29T797 -28Q688 -28 590 -2L501 -214L378 -169L466 43ZM944 1358Q915 1379 882 1390T809 1402Q710 1402 643 1360T535 1235T477 1033T459 755Q459 702 465 642T485 519T521 398T573 288L944
1358ZM674 175Q703 155 737 144T810 132Q907 132 971 173T1073 296T1126 501T1142 789Q1142 844 1137 903T1119 1020T1089 1134T1045 1237L674 175Z" />
<glyph unicode="&#xd9;" glyph-name="Ugrave" horiz-adv-x="1601" d="M636 1920L1009 1700L908 1593Q897 1592 866 1596T793 1608T701 1627T604 1654T514 1688T443 1728L636 1920ZM193 1365L35 1389V1553H717V1389L548 1366V610Q548 509 562 436T601 311T659 229T731
180T810 156T892 150Q961 150 1019 174T1121 257T1188 415T1211 666L1208 1363L1040 1389V1553H1579V1389L1435 1363V667Q1435 530 1413 426T1351 244T1256 114T1136 31T998 -14T848 -28Q512 -28 350 133T189 625L193 1365Z" />
<glyph unicode="&#xda;" glyph-name="Uacute" horiz-adv-x="1601" d="M713 1700L1106 1920L1299 1728Q1271 1707 1227 1689T1133 1655T1031 1628T935 1608T858 1596T814 1593L713 1700ZM193 1365L35 1389V1553H717V1389L548 1366V610Q548 509 562 436T601 311T659
229T731 180T810 156T892 150Q961 150 1019 174T1121 257T1188 415T1211 666L1208 1363L1040 1389V1553H1579V1389L1435 1363V667Q1435 530 1413 426T1351 244T1256 114T1136 31T998 -14T848 -28Q512 -28 350 133T189 625L193 1365Z" />
<glyph unicode="&#xdb;" glyph-name="Ucircumflex" horiz-adv-x="1601" d="M476 1670L751 1920H983L1253 1670L1141 1597L869 1726L587 1597L476 1670ZM193 1365L35 1389V1553H717V1389L548 1366V610Q548 509 562 436T601 311T659 229T731 180T810 156T892 150Q961
150 1019 174T1121 257T1188 415T1211 666L1208 1363L1040 1389V1553H1579V1389L1435 1363V667Q1435 530 1413 426T1351 244T1256 114T1136 31T998 -14T848 -28Q512 -28 350 133T189 625L193 1365Z" />
<glyph unicode="&#xdc;" glyph-name="Udieresis" horiz-adv-x="1601" d="M1126 1619Q1091 1619 1059 1628T1001 1655T960 1699T945 1759Q945 1794 963 1823T1010 1874T1077 1908T1152 1920Q1201 1920 1235 1910T1290 1881T1320 1837T1330 1782Q1330 1744 1313
1714T1268 1663T1203 1631T1126 1619ZM578 1618Q542 1618 510 1627T454 1653T415 1697T401 1756Q401 1792 418 1822T465 1874T530 1908T606 1920Q655 1920 689 1909T746 1880T779 1836T790 1780Q790 1743 773 1713T726 1662T658 1630T578 1618ZM193 1365L35 1389V1553H717V1389L548
1366V610Q548 509 562 436T601 311T659 229T731 180T810 156T892 150Q961 150 1019 174T1121 257T1188 415T1211 666L1208 1363L1040 1389V1553H1579V1389L1435 1363V667Q1435 530 1413 426T1351 244T1256 114T1136 31T998 -14T848 -28Q512 -28 350 133T189 625L193
1365Z" />
<glyph unicode="&#xdd;" glyph-name="Yacute" horiz-adv-x="1470" d="M611 1700L1004 1920L1197 1728Q1169 1707 1125 1689T1031 1655T929 1628T833 1608T756 1596T712 1593L611 1700ZM344 140L584 185V511L118 1370L8 1389V1553H638V1392L532 1372L784 841L813
747L846 850L1059 1364L900 1389Q900 1431 900 1471T899 1553H1462V1389L1330 1352L940 543V188L1209 140V0H344V140Z" />
<glyph unicode="&#xde;" glyph-name="Thorn" horiz-adv-x="1378" d="M71 140L235 183V1364L23 1389V1553H788V1389L589 1364V1211Q643 1217 700 1222T811 1228Q940 1228 1044 1207T1221 1137T1335 1010T1375 820Q1375 695 1335 601T1217 442T1030 345T780 312Q723
312 671 314T589 319V182L843 140V0H71V140ZM589 483Q599 481 615 480T652 478T694 477T736 476Q799 476 848 499T933 565T986 667T1005 797Q1005 869 981 919T916 999T819 1043T701 1056Q650 1055 626 1054T589 1051V483Z" />
<glyph unicode="&#xdf;" glyph-name="germandbls" horiz-adv-x="1478" d="M46 144L198 194V865Q198 997 224 1099T296 1278T404 1407T539 1492T691 1538T851 1553Q887 1553 930 1548T1017 1529T1100 1494T1172 1443T1221 1371T1240 1276Q1240 1218 1220 1176T1168
1102T1102 1044T1035 992T984 936T963 866Q963 823 984 794T1039 742T1116 703T1205 667T1294 626T1372 571T1427 493T1448 384Q1448 299 1423 225T1342 96T1198 9T984 -23Q950 -23 902 -21T808 -13T725 -1T675 18V215Q692 202 718 188T777 161T850 140T933 132Q968
132 1000 142T1056 172T1095 224T1110 297Q1110 341 1091 368T1042 413T972 443T891 469T810 502T740 552T690 631T671 748Q671 802 689 841T735 913T794 975T854 1039T899 1117T918 1222Q918 1259 910 1290T884 1344T839 1380T774 1393Q721 1393 680 1372T610
1302T567 1174T552 978V0H46V144Z" />
<glyph unicode="&#xe0;" glyph-name="agrave" horiz-adv-x="1226" d="M704 1337Q644 1335 575 1364T441 1440T318 1544T222 1657L477 1852L792 1426L704 1337ZM71 394Q85 452 125 498T221 578T344 635T479 674T610 695T724 702Q724 782 710 832T669 910T602 949T511
960Q446 960 391 950T292 925T220 897T180 874L112 1028Q128 1041 169 1062T274 1103T425 1137T618 1151Q719 1151 803 1133T949 1068T1044 942T1078 740V136H1209V29Q1183 11 1151 0T1083 -17T1014 -25T950 -28Q931 -28 901 -24T843 -8T793 27T770 86Q718 37 647
5T480 -28Q349 -28 262 7T125 101T64 236T71 394ZM417 335Q417 238 472 195T633 167Q660 171 682 181T723 206Q723 292 723 377T724 549Q693 549 658 546T589 533T524 508T469 469T431 412T417 335Z" />
<glyph unicode="&#xe1;" glyph-name="aacute" horiz-adv-x="1226" d="M447 1425L762 1851L1017 1656Q981 1599 925 1550T804 1460T669 1388T535 1336L447 1425ZM71 394Q85 452 125 498T221 578T344 635T479 674T610 695T724 702Q724 782 710 832T669 910T602 949T511
960Q446 960 391 950T292 925T220 897T180 874L112 1028Q128 1041 169 1062T274 1103T425 1137T618 1151Q719 1151 803 1133T949 1068T1044 942T1078 740V136H1209V29Q1183 11 1151 0T1083 -17T1014 -25T950 -28Q931 -28 901 -24T843 -8T793 27T770 86Q718 37 647
5T480 -28Q349 -28 262 7T125 101T64 236T71 394ZM417 335Q417 238 472 195T633 167Q660 171 682 181T723 206Q723 292 723 377T724 549Q693 549 658 546T589 533T524 508T469 469T431 412T417 335Z" />
<glyph unicode="&#xe2;" glyph-name="acircumflex" horiz-adv-x="1226" d="M187 1409L458 1775H711L988 1410L843 1336L584 1542L318 1335L187 1409ZM71 394Q85 452 125 498T221 578T344 635T479 674T610 695T724 702Q724 782 710 832T669 910T602 949T511 960Q446
960 391 950T292 925T220 897T180 874L112 1028Q128 1041 169 1062T274 1103T425 1137T618 1151Q719 1151 803 1133T949 1068T1044 942T1078 740V136H1209V29Q1183 11 1151 0T1083 -17T1014 -25T950 -28Q931 -28 901 -24T843 -8T793 27T770 86Q718 37 647 5T480
-28Q349 -28 262 7T125 101T64 236T71 394ZM417 335Q417 238 472 195T633 167Q660 171 682 181T723 206Q723 292 723 377T724 549Q693 549 658 546T589 533T524 508T469 469T431 412T417 335Z" />
<glyph unicode="&#xe3;" glyph-name="atilde" horiz-adv-x="1226" d="M155 1467Q171 1511 208 1549T291 1615T382 1659T463 1675Q518 1675 558 1660T632 1625T695 1591T756 1575Q809 1575 849 1597T922 1646L1011 1549Q994 1505 958 1467T879 1400T790 1355T710
1338Q656 1338 614 1354T538 1389T473 1425T410 1441Q388 1441 366 1435T322 1418T280 1395T242 1369L155 1467ZM71 394Q85 452 125 498T221 578T344 635T479 674T610 695T724 702Q724 782 710 832T669 910T602 949T511 960Q446 960 391 950T292 925T220 897T180
874L112 1028Q128 1041 169 1062T274 1103T425 1137T618 1151Q719 1151 803 1133T949 1068T1044 942T1078 740V136H1209V29Q1183 11 1151 0T1083 -17T1014 -25T950 -28Q931 -28 901 -24T843 -8T793 27T770 86Q718 37 647 5T480 -28Q349 -28 262 7T125 101T64 236T71
394ZM417 335Q417 238 472 195T633 167Q660 171 682 181T723 206Q723 292 723 377T724 549Q693 549 658 546T589 533T524 508T469 469T431 412T417 335Z" />
<glyph unicode="&#xe4;" glyph-name="adieresis" horiz-adv-x="1226" d="M834 1349Q799 1349 767 1358T709 1385T668 1429T653 1489Q653 1524 671 1553T718 1604T785 1638T860 1650Q909 1650 943 1640T998 1611T1028 1567T1038 1512Q1038 1474 1021 1444T976 1393T911
1361T834 1349ZM306 1348Q270 1348 238 1357T182 1383T143 1427T129 1486Q129 1522 146 1552T193 1604T258 1638T334 1650Q383 1650 417 1639T474 1610T507 1566T518 1510Q518 1473 501 1443T454 1392T386 1360T306 1348ZM71 394Q85 452 125 498T221 578T344 635T479
674T610 695T724 702Q724 782 710 832T669 910T602 949T511 960Q446 960 391 950T292 925T220 897T180 874L112 1028Q128 1041 169 1062T274 1103T425 1137T618 1151Q719 1151 803 1133T949 1068T1044 942T1078 740V136H1209V29Q1183 11 1151 0T1083 -17T1014 -25T950
-28Q931 -28 901 -24T843 -8T793 27T770 86Q718 37 647 5T480 -28Q349 -28 262 7T125 101T64 236T71 394ZM417 335Q417 238 472 195T633 167Q660 171 682 181T723 206Q723 292 723 377T724 549Q693 549 658 546T589 533T524 508T469 469T431 412T417 335Z" />
<glyph unicode="&#xe5;" glyph-name="aring" horiz-adv-x="1226" d="M584 1285Q524 1285 471 1306T377 1365T314 1453T291 1560Q291 1617 314 1667T377 1754T470 1813T584 1835Q645 1835 699 1813T793 1752T856 1665T879 1560Q879 1503 856 1453T793 1366T699
1307T584 1285ZM584 1427Q612 1427 636 1437T678 1464T706 1506T716 1560Q716 1587 706 1611T678 1654T636 1683T584 1694Q554 1694 530 1684T488 1656T461 1614T451 1560Q451 1531 460 1507T487 1465T529 1437T584 1427ZM71 394Q85 452 125 498T221 578T344 635T479
674T610 695T724 702Q724 782 710 832T669 910T602 949T511 960Q446 960 391 950T292 925T220 897T180 874L112 1028Q128 1041 169 1062T274 1103T425 1137T618 1151Q719 1151 803 1133T949 1068T1044 942T1078 740V136H1209V29Q1183 11 1151 0T1083 -17T1014 -25T950
-28Q931 -28 901 -24T843 -8T793 27T770 86Q718 37 647 5T480 -28Q349 -28 262 7T125 101T64 236T71 394ZM417 335Q417 238 472 195T633 167Q660 171 682 181T723 206Q723 292 723 377T724 549Q693 549 658 546T589 533T524 508T469 469T431 412T417 335Z" />
<glyph unicode="&#xe6;" glyph-name="ae" horiz-adv-x="1893" d="M71 394Q85 452 125 498T221 578T344 635T479 674T610 695T724 702Q724 737 721 766Q715 825 699 862T656 919T593 947T511 955Q446 955 391 945T292 920T220 892T180 869L112 1028Q128 1041 169
1062T274 1103T425 1137T618 1151Q730 1151 821 1128T975 1045Q1048 1096 1139 1123T1341 1151Q1462 1151 1549 1120T1692 1034T1776 901T1807 733Q1809 670 1804 621T1793 530H1086Q1100 353 1180 263T1413 173Q1486 173 1573 190T1742 244L1795 115Q1757 83 1701
56T1579 10T1440 -19T1294 -28Q1027 -22 882 111Q852 81 813 56T725 12T614 -17T480 -28Q349 -28 262 7T125 101T64 236T71 394ZM1463 691Q1465 723 1468 759T1470 830T1461 898T1436 956T1387 996T1309 1011Q1251 1011 1205 976Q1155 938 1124 866T1085 691H1463ZM417
335Q417 238 472 195T633 167Q664 172 685 179T723 196Q723 285 723 372T724 549Q693 549 658 546T589 533T524 508T469 469T431 412T417 335Z" />
<glyph unicode="&#xe7;" glyph-name="ccedilla" horiz-adv-x="1134" d="M74 525Q73 670 121 784T254 979T451 1102T695 1151Q746 1152 802 1149T908 1139T1000 1122T1064 1099V782H881L802 970Q774 987 738 991T670 995Q619 995 578 970T508 898T461 781T441 624Q437
503 462 417T533 275T639 195T767 169Q812 169 855 175T934 190T1000 213T1048 240L1101 115Q1033 56 936 21T717 -24Q716 -50 718 -80T722 -133Q785 -139 826 -161T892 -212T926 -272T936 -326Q936 -376 917 -413T864 -476T781 -516T675 -533Q628 -535 587 -533T513
-525T453 -513T411 -503V-354Q423 -357 442 -359T480 -364T515 -367T537 -368Q569 -368 587 -353T606 -312Q606 -283 588 -269T544 -255Q538 -255 529 -255T510 -256T494 -258T486 -259Q486 -239 490 -208T500 -143T514 -77T530 -21Q419 -6 334 40T192 158T105
323T74 525Z" />
<glyph unicode="&#xe8;" glyph-name="egrave" horiz-adv-x="1239" d="M786 1337Q726 1335 657 1364T523 1440T400 1544T304 1657L559 1852L874 1426L786 1337ZM73 531Q73 659 115 772T236 969T429 1102T687 1151Q808 1151 895 1120T1038 1034T1122 901T1153 733Q1155
670 1150 621T1139 530H442Q456 353 533 263T759 173Q832 173 914 188T1078 240L1131 115Q1093 83 1039 56T920 10T785 -19T640 -28Q504 -25 399 13T221 122T111 296T73 531ZM809 691Q812 728 815 770T815 853T797 929T753 985Q735 998 711 1004T655 1011Q597 1011
558 983T495 909T459 806T443 691H809Z" />
<glyph unicode="&#xe9;" glyph-name="eacute" horiz-adv-x="1239" d="M529 1425L844 1851L1099 1656Q1063 1599 1007 1550T886 1460T751 1388T617 1336L529 1425ZM73 531Q73 659 115 772T236 969T429 1102T687 1151Q808 1151 895 1120T1038 1034T1122 901T1153
733Q1155 670 1150 621T1139 530H442Q456 353 533 263T759 173Q832 173 914 188T1078 240L1131 115Q1093 83 1039 56T920 10T785 -19T640 -28Q504 -25 399 13T221 122T111 296T73 531ZM809 691Q812 728 815 770T815 853T797 929T753 985Q735 998 711 1004T655 1011Q597
1011 558 983T495 909T459 806T443 691H809Z" />
<glyph unicode="&#xea;" glyph-name="ecircumflex" horiz-adv-x="1239" d="M269 1409L540 1775H793L1070 1410L925 1336L666 1542L400 1335L269 1409ZM73 531Q73 659 115 772T236 969T429 1102T687 1151Q808 1151 895 1120T1038 1034T1122 901T1153 733Q1155 670
1150 621T1139 530H442Q456 353 533 263T759 173Q832 173 914 188T1078 240L1131 115Q1093 83 1039 56T920 10T785 -19T640 -28Q504 -25 399 13T221 122T111 296T73 531ZM809 691Q812 728 815 770T815 853T797 929T753 985Q735 998 711 1004T655 1011Q597 1011
558 983T495 909T459 806T443 691H809Z" />
<glyph unicode="&#xeb;" glyph-name="edieresis" horiz-adv-x="1239" d="M916 1349Q881 1349 849 1358T791 1385T750 1429T735 1489Q735 1524 753 1553T800 1604T867 1638T942 1650Q991 1650 1025 1640T1080 1611T1110 1567T1120 1512Q1120 1474 1103 1444T1058
1393T993 1361T916 1349ZM388 1348Q352 1348 320 1357T264 1383T225 1427T211 1486Q211 1522 228 1552T275 1604T340 1638T416 1650Q465 1650 499 1639T556 1610T589 1566T600 1510Q600 1473 583 1443T536 1392T468 1360T388 1348ZM73 531Q73 659 115 772T236 969T429
1102T687 1151Q808 1151 895 1120T1038 1034T1122 901T1153 733Q1155 670 1150 621T1139 530H442Q456 353 533 263T759 173Q832 173 914 188T1078 240L1131 115Q1093 83 1039 56T920 10T785 -19T640 -28Q504 -25 399 13T221 122T111 296T73 531ZM809 691Q812 728
815 770T815 853T797 929T753 985Q735 998 711 1004T655 1011Q597 1011 558 983T495 909T459 806T443 691H809Z" />
<glyph unicode="&#xec;" glyph-name="igrave" horiz-adv-x="748" d="M510 1337Q450 1335 381 1364T247 1440T124 1544T28 1657L283 1852L598 1426L510 1337ZM79 136L214 164V786L86 930V1023L482 1157L567 1132V162L708 136V0H79V136Z" />
<glyph unicode="&#xed;" glyph-name="iacute" horiz-adv-x="748" d="M253 1425L568 1851L823 1656Q787 1599 731 1550T610 1460T475 1388T341 1336L253 1425ZM79 136L214 164V786L86 930V1023L482 1157L567 1132V162L708 136V0H79V136Z" />
<glyph unicode="&#xee;" glyph-name="icircumflex" horiz-adv-x="748" d="M-7 1409L264 1775H517L794 1410L649 1336L390 1542L124 1335L-7 1409ZM79 136L214 164V786L86 930V1023L482 1157L567 1132V162L708 136V0H79V136Z" />
<glyph unicode="&#xef;" glyph-name="idieresis" horiz-adv-x="748" d="M640 1349Q605 1349 573 1358T515 1385T474 1429T459 1489Q459 1524 477 1553T524 1604T591 1638T666 1650Q715 1650 749 1640T804 1611T834 1567T844 1512Q844 1474 827 1444T782 1393T717
1361T640 1349ZM112 1348Q76 1348 44 1357T-12 1383T-51 1427T-65 1486Q-65 1522 -48 1552T-1 1604T64 1638T140 1650Q189 1650 223 1639T280 1610T313 1566T324 1510Q324 1473 307 1443T260 1392T192 1360T112 1348ZM79 136L214 164V786L86 930V1023L482 1157L567
1132V162L708 136V0H79V136Z" />
<glyph unicode="&#xf0;" glyph-name="eth" horiz-adv-x="1323" d="M64 502Q64 600 87 680T150 824T244 933T362 1009T495 1054T635 1069Q735 1069 810 1038T932 962Q911 1078 850 1178T695 1357L530 1209L427 1295L582 1437Q519 1474 450 1500T305 1542L331 1691Q423
1682 521 1652T717 1568Q743 1593 772 1620T827 1670Q856 1696 883 1722L993 1626Q968 1605 942 1582Q919 1562 892 1538T838 1490Q922 1427 995 1344T1122 1157T1208 927T1239 652Q1239 508 1210 384T1111 169T922 25T626 -27Q503 -27 400 11T223 120T106 287T64
502ZM424 519Q424 435 445 364T500 240T576 158T660 128Q707 128 750 149T828 221T882 357T902 571Q902 596 901 620T893 678Q886 713 866 753T814 829T741 887T652 910Q587 910 544 885T474 811T436 689T424 519Z" />
<glyph unicode="&#xf1;" glyph-name="ntilde" horiz-adv-x="1466" d="M336 1467Q352 1511 389 1549T472 1615T563 1659T644 1675Q699 1675 739 1660T813 1625T876 1591T937 1575Q990 1575 1030 1597T1103 1646L1192 1549Q1175 1505 1139 1467T1060 1400T971 1355T891
1338Q837 1338 795 1354T719 1389T654 1425T591 1441Q569 1441 547 1435T503 1418T461 1395T423 1369L336 1467ZM97 136L222 161V819L86 915V1041L457 1151L532 1132V984Q571 1022 620 1053T723 1105T836 1139T951 1151Q1047 1151 1110 1121T1210 1032T1263 891T1279
700V162L1420 136V0H782V136L925 164V655Q925 735 918 786T889 867T830 908T728 920Q719 920 699 917T655 907T610 893T576 874V163L699 136V0H97V136Z" />
<glyph unicode="&#xf2;" glyph-name="ograve" horiz-adv-x="1335" d="M791 1337Q731 1335 662 1364T528 1440T405 1544T309 1657L564 1852L879 1426L791 1337ZM74 561Q76 715 127 826T263 1009T458 1115T686 1152Q820 1153 926 1118T1107 1013T1222 836T1262 591Q1262
433 1212 318T1079 126T886 13T658 -24Q498 -24 387 22T205 147T104 334T74 561ZM669 122Q739 122 781 163T847 269T878 414T886 574Q886 621 883 671T872 770T849 861T811 936T755 987T677 1006Q631 1006 596 989T536 941T494 871T468 785T454 688T450 589Q450
546 454 495T467 392T492 292T532 205T590 145T669 122Z" />
<glyph unicode="&#xf3;" glyph-name="oacute" horiz-adv-x="1335" d="M534 1425L849 1851L1104 1656Q1068 1599 1012 1550T891 1460T756 1388T622 1336L534 1425ZM74 561Q76 715 127 826T263 1009T458 1115T686 1152Q820 1153 926 1118T1107 1013T1222 836T1262
591Q1262 433 1212 318T1079 126T886 13T658 -24Q498 -24 387 22T205 147T104 334T74 561ZM669 122Q739 122 781 163T847 269T878 414T886 574Q886 621 883 671T872 770T849 861T811 936T755 987T677 1006Q631 1006 596 989T536 941T494 871T468 785T454 688T450
589Q450 546 454 495T467 392T492 292T532 205T590 145T669 122Z" />
<glyph unicode="&#xf4;" glyph-name="ocircumflex" horiz-adv-x="1335" d="M274 1409L545 1775H798L1075 1410L930 1336L671 1542L405 1335L274 1409ZM74 561Q76 715 127 826T263 1009T458 1115T686 1152Q820 1153 926 1118T1107 1013T1222 836T1262 591Q1262
433 1212 318T1079 126T886 13T658 -24Q498 -24 387 22T205 147T104 334T74 561ZM669 122Q739 122 781 163T847 269T878 414T886 574Q886 621 883 671T872 770T849 861T811 936T755 987T677 1006Q631 1006 596 989T536 941T494 871T468 785T454 688T450 589Q450
546 454 495T467 392T492 292T532 205T590 145T669 122Z" />
<glyph unicode="&#xf5;" glyph-name="otilde" horiz-adv-x="1335" d="M242 1467Q258 1511 295 1549T378 1615T469 1659T550 1675Q605 1675 645 1660T719 1625T782 1591T843 1575Q896 1575 936 1597T1009 1646L1098 1549Q1081 1505 1045 1467T966 1400T877 1355T797
1338Q743 1338 701 1354T625 1389T560 1425T497 1441Q475 1441 453 1435T409 1418T367 1395T329 1369L242 1467ZM74 561Q76 715 127 826T263 1009T458 1115T686 1152Q820 1153 926 1118T1107 1013T1222 836T1262 591Q1262 433 1212 318T1079 126T886 13T658 -24Q498
-24 387 22T205 147T104 334T74 561ZM669 122Q739 122 781 163T847 269T878 414T886 574Q886 621 883 671T872 770T849 861T811 936T755 987T677 1006Q631 1006 596 989T536 941T494 871T468 785T454 688T450 589Q450 546 454 495T467 392T492 292T532 205T590
145T669 122Z" />
<glyph unicode="&#xf6;" glyph-name="odieresis" horiz-adv-x="1335" d="M921 1349Q886 1349 854 1358T796 1385T755 1429T740 1489Q740 1524 758 1553T805 1604T872 1638T947 1650Q996 1650 1030 1640T1085 1611T1115 1567T1125 1512Q1125 1474 1108 1444T1063
1393T998 1361T921 1349ZM393 1348Q357 1348 325 1357T269 1383T230 1427T216 1486Q216 1522 233 1552T280 1604T345 1638T421 1650Q470 1650 504 1639T561 1610T594 1566T605 1510Q605 1473 588 1443T541 1392T473 1360T393 1348ZM74 561Q76 715 127 826T263 1009T458
1115T686 1152Q820 1153 926 1118T1107 1013T1222 836T1262 591Q1262 433 1212 318T1079 126T886 13T658 -24Q498 -24 387 22T205 147T104 334T74 561ZM669 122Q739 122 781 163T847 269T878 414T886 574Q886 621 883 671T872 770T849 861T811 936T755 987T677
1006Q631 1006 596 989T536 941T494 871T468 785T454 688T450 589Q450 546 454 495T467 392T492 292T532 205T590 145T669 122Z" />
<glyph unicode="&#xf7;" glyph-name="divide" horiz-adv-x="1400" d="M713 1145Q675 1145 640 1157T576 1193T532 1251T515 1331Q515 1379 536 1420T590 1490T665 1536T748 1553Q801 1553 839 1539T901 1499T937 1439T949 1364Q949 1313 929 1273T875 1204T800
1160T713 1145ZM183 958H1217V722H183V958ZM514 313Q514 361 535 402T589 472T664 518T747 535Q800 535 838 521T900 481T936 421T948 346Q948 295 928 255T874 186T799 142T712 127Q674 127 639 139T575 175T531 233T514 313Z" />
<glyph unicode="&#xf8;" glyph-name="oslash" horiz-adv-x="1335" d="M429 7Q333 37 265 91T155 217T93 377T74 561Q76 715 127 826T263 1009T458 1115T686 1152Q714 1152 740 1151T793 1147L843 1311L953 1285L904 1125Q989 1101 1055 1055T1168 942T1238 787T1262
591Q1262 433 1212 318T1079 126T886 13T658 -24Q627 -24 598 -22T542 -17L485 -205L372 -178L429 7ZM741 993Q727 999 711 1002T677 1006Q631 1006 596 989T536 941T494 871T468 785T454 688T450 589Q450 551 453 507T463 418T481 328T511 245L741 993ZM599 139Q631
122 669 122Q739 122 781 163T847 269T878 414T886 574Q886 616 884 660T875 746T859 829T831 902L599 139Z" />
<glyph unicode="&#xf9;" glyph-name="ugrave" horiz-adv-x="1331" d="M763 1337Q703 1335 634 1364T500 1440T377 1544T281 1657L536 1852L851 1426L763 1337ZM147 868L53 938V1060L435 1151L488 1134V438Q488 370 494 320T518 235T564 184T641 167Q666 167 692
171T743 181T787 198T819 220V851L692 922V1060L1110 1151L1166 1134V136H1280V29Q1263 17 1233 7T1163 -11T1081 -23T997 -28Q967 -28 941 -22T896 -3T865 31T854 82V120Q825 85 784 58T696 12T605 -18T524 -28Q419 -28 347 -4T231 72T167 202T147 391V868Z" />
<glyph unicode="&#xfa;" glyph-name="uacute" horiz-adv-x="1331" d="M506 1425L821 1851L1076 1656Q1040 1599 984 1550T863 1460T728 1388T594 1336L506 1425ZM147 868L53 938V1060L435 1151L488 1134V438Q488 370 494 320T518 235T564 184T641 167Q666 167
692 171T743 181T787 198T819 220V851L692 922V1060L1110 1151L1166 1134V136H1280V29Q1263 17 1233 7T1163 -11T1081 -23T997 -28Q967 -28 941 -22T896 -3T865 31T854 82V120Q825 85 784 58T696 12T605 -18T524 -28Q419 -28 347 -4T231 72T167 202T147 391V868Z"
/>
<glyph unicode="&#xfb;" glyph-name="ucircumflex" horiz-adv-x="1331" d="M246 1409L517 1775H770L1047 1410L902 1336L643 1542L377 1335L246 1409ZM147 868L53 938V1060L435 1151L488 1134V438Q488 370 494 320T518 235T564 184T641 167Q666 167 692 171T743
181T787 198T819 220V851L692 922V1060L1110 1151L1166 1134V136H1280V29Q1263 17 1233 7T1163 -11T1081 -23T997 -28Q967 -28 941 -22T896 -3T865 31T854 82V120Q825 85 784 58T696 12T605 -18T524 -28Q419 -28 347 -4T231 72T167 202T147 391V868Z" />
<glyph unicode="&#xfc;" glyph-name="udieresis" horiz-adv-x="1331" d="M893 1349Q858 1349 826 1358T768 1385T727 1429T712 1489Q712 1524 730 1553T777 1604T844 1638T919 1650Q968 1650 1002 1640T1057 1611T1087 1567T1097 1512Q1097 1474 1080 1444T1035
1393T970 1361T893 1349ZM365 1348Q329 1348 297 1357T241 1383T202 1427T188 1486Q188 1522 205 1552T252 1604T317 1638T393 1650Q442 1650 476 1639T533 1610T566 1566T577 1510Q577 1473 560 1443T513 1392T445 1360T365 1348ZM147 868L53 938V1060L435 1151L488
1134V438Q488 370 494 320T518 235T564 184T641 167Q666 167 692 171T743 181T787 198T819 220V851L692 922V1060L1110 1151L1166 1134V136H1280V29Q1263 17 1233 7T1163 -11T1081 -23T997 -28Q967 -28 941 -22T896 -3T865 31T854 82V120Q825 85 784 58T696 12T605
-18T524 -28Q419 -28 347 -4T231 72T167 202T147 391V868Z" />
<glyph unicode="&#xfd;" glyph-name="yacute" horiz-adv-x="1233" d="M531 1425L846 1851L1101 1656Q1065 1599 1009 1550T888 1460T753 1388T619 1336L531 1425ZM147 -261Q173 -266 209 -272T295 -277Q319 -276 352 -268T420 -231T487 -148T542 0H486L92 914L5
940V1119H590V940L476 915L673 381L689 278L718 381L881 917L744 940V1119H1252V940L1152 919Q1078 731 1022 591T925 349T856 179T810 65T780 -9T761 -56Q717 -173 672 -263T574 -416T455 -510T306 -542Q285 -542 262 -542T215 -539Q192 -537 174 -535T145 -527L147
-261Z" />
<glyph unicode="&#xfe;" glyph-name="thorn" horiz-adv-x="1348" d="M170 1384L45 1441V1581L467 1629L524 1612V1088Q573 1115 639 1133T787 1151Q880 1151 967 1122T1123 1028T1233 859T1275 605Q1275 483 1231 369T1104 166T905 25T644 -28Q610 -28 577 -26T509
-21L524 -103V-343L738 -371V-511H15V-371L171 -341Q171 -240 171 -140T170 60V1384ZM524 201Q531 188 542 174T573 147T618 126T680 117Q722 117 763 136T837 206T892 344T918 567Q921 674 898 751T835 878T746 952T650 976Q609 976 578 971T524 957V201Z" />
<glyph unicode="&#xff;" glyph-name="ydieresis" horiz-adv-x="1233" d="M918 1349Q883 1349 851 1358T793 1385T752 1429T737 1489Q737 1524 755 1553T802 1604T869 1638T944 1650Q993 1650 1027 1640T1082 1611T1112 1567T1122 1512Q1122 1474 1105 1444T1060
1393T995 1361T918 1349ZM390 1348Q354 1348 322 1357T266 1383T227 1427T213 1486Q213 1522 230 1552T277 1604T342 1638T418 1650Q467 1650 501 1639T558 1610T591 1566T602 1510Q602 1473 585 1443T538 1392T470 1360T390 1348ZM147 -261Q173 -266 209 -272T295
-277Q319 -276 352 -268T420 -231T487 -148T542 0H486L92 914L5 940V1119H590V940L476 915L673 381L689 278L718 381L881 917L744 940V1119H1252V940L1152 919Q1078 731 1022 591T925 349T856 179T810 65T780 -9T761 -56Q717 -173 672 -263T574 -416T455 -510T306
-542Q285 -542 262 -542T215 -539Q192 -537 174 -535T145 -527L147 -261Z" />
<glyph unicode="&#x2013;" glyph-name="endash" horiz-adv-x="1510" d="M183 958H1327V722H183V958Z" />
<glyph unicode="&#x2014;" glyph-name="emdash" horiz-adv-x="2415" d="M183 958H2232V724H183V958Z" />
<glyph unicode="&#x2018;" glyph-name="quoteleft" horiz-adv-x="922" d="M460 760Q383 787 332 839T249 952T206 1078T194 1192Q196 1269 216 1337T268 1465T343 1572T433 1660T530 1726T626 1771L729 1678V1635Q699 1623 665 1591T601 1516T553 1422T534 1324Q534
1290 547 1256T582 1194T632 1148T692 1126V1048L460 760Z" />
<glyph unicode="&#x2019;" glyph-name="quoteright" horiz-adv-x="922" d="M193 855V898Q224 910 258 942T322 1017T370 1111T389 1209Q389 1243 376 1277T340 1339T289 1385T229 1407V1484L461 1773Q538 1746 589 1694T672 1581T716 1456T728 1342Q725 1226 683
1130T578 961T440 838T297 763L193 855Z" />
<glyph unicode="&#x201a;" glyph-name="quotesinglbase" horiz-adv-x="922" d="M229 152L461 440Q538 413 589 362T672 249T716 123T728 9Q726 -68 706 -134T654 -255T578 -356T488 -436T392 -497T297 -540L193 -447V-404Q224 -392 258 -365T321 -300T369 -217T388
-123Q388 -89 375 -55T339 7T289 53T229 75V152Z" />
<glyph unicode="&#x201c;" glyph-name="quotedblleft" horiz-adv-x="1537" d="M1074 759Q997 786 946 838T863 952T819 1077T808 1190Q810 1267 830 1335T882 1463T958 1571T1048 1658T1144 1725T1238 1770L1344 1676V1634Q1313 1622 1279 1590T1215 1515T1166
1421T1147 1323Q1147 1288 1160 1254T1196 1193T1247 1147T1307 1125V1048L1074 759ZM460 759Q383 786 331 838T248 952T205 1077T194 1190Q195 1267 215 1335T268 1463T344 1571T434 1658T531 1725T625 1770L730 1676V1634Q698 1622 664 1590T601 1515T553 1421T534
1323Q534 1288 547 1254T582 1193T632 1147T692 1125V1048L460 759Z" />
<glyph unicode="&#x201d;" glyph-name="quotedblright" horiz-adv-x="1538" d="M806 894Q838 906 872 938T936 1013T984 1107T1003 1205Q1003 1239 990 1273T955 1335T905 1381T845 1403V1480L1076 1769Q1154 1742 1206 1690T1289 1577T1332 1452T1344 1338Q1342
1261 1322 1193T1270 1065T1194 957T1104 870T1007 803T913 759L806 851V894ZM193 851V894Q224 906 258 938T322 1013T371 1107T390 1205Q390 1239 377 1273T341 1335T290 1381T230 1403V1480L462 1769Q539 1742 591 1690T674 1577T718 1452T729 1338Q727 1261
707 1193T655 1065T579 957T489 870T393 803T299 759L193 851Z" />
<glyph unicode="&#x201e;" glyph-name="quotedblbase" horiz-adv-x="1488" d="M796 155L1028 444Q1105 417 1157 365T1240 251T1283 126T1294 12Q1293 -65 1273 -133T1220 -260T1144 -368T1054 -455T957 -522T863 -567L757 -473V-431Q789 -419 823 -388T887 -313T935
-219T954 -121Q954 -87 941 -53T905 10T855 56T796 78V155ZM231 155L464 444Q540 417 592 365T675 251T719 126T730 12Q728 -65 708 -133T656 -260T580 -368T490 -455T394 -522T300 -567L193 -473V-431Q224 -419 259 -388T323 -313T371 -219T390 -121Q390 -87 377
-53T341 10T291 56T231 78V155Z" />
<glyph unicode="&#x2022;" glyph-name="bullet" horiz-adv-x="919" d="M443 442Q374 442 313 469T206 542T137 649T119 777Q124 847 155 907T234 1011T346 1081T478 1107Q547 1107 608 1082T713 1012T782 907T801 777Q796 707 766 646T687 540T576 468T443 442Z" />
<glyph unicode="&#x2039;" glyph-name="guilsinglleft" horiz-adv-x="1283" d="M229 757L968 1144L1054 1008L598 614L1054 238L968 90L229 452V757Z" />
<glyph unicode="&#x203a;" glyph-name="guilsinglright" horiz-adv-x="1283" d="M678 619L223 996L309 1144L1048 782V477L309 90L223 226L678 619Z" />
</font>
</defs>
</svg>
